Скачать через торрент музыку Armand Amar - Le Premier Cri бесплатно без регистрации torrent

Если у вас наблюдаются проблемы со скриншотами, переходом по ссылками, скачиванием торрентов - проблемы в блокировщике рекламы AdBlock. #хорошегоДня!


Статистика раздачи
Размер:  294 MB   |    Зарегистрирован:  6 лет 5 месяцев   |    .torrent скачан:  58 раз   |   
Раздают:  1  
   
Загрузка...
 
Автор Сообщение

Galfimbul

avatar Galfimbul


Armand Amar
Le premier cri
Score for the film by Gilles de Maistre

Жанр: Score
Год выпуска диска: 2007
Производитель диска: France
Аудио кодек: APE
Тип рипа: image+.cue
Битрейт аудио: lossless
Продолжительность: 56:27
Автор оригинальной раздачи: FidorkaPosleda (Hqshare)

Трэклист:
01. A New Born Child (Sinead O'Connor) (3:29)
02. Le Premier Cri (Sandrine Piau) (1:36)
03. Les Enfants de l'Éclipse (3:06)
04. Majtonré (1:26)
05. L'Enfant de la Forèt (1:28)
06. City Of Birth (4:06)
07. Camp Niger (1:44)
08. L'Enfant des Sables (2:17)
09. Sunita (Sharmila Roy) (2:52)
10. Les Larmes d'Elisabeth part 1 (1:38)
11. Les Larmes d'Elisabeth part 2 (3:06)
12. L'Aube (2:24)
13. Kokoya (Asa) (2:23)
14. Le Rève (3:11)
15. Mané (Roselyne Minassian) (3:09)
16. La Valse des Bébés (3:02)
17. Yukiko (Etsuko Chida) (1:20)
18. Née de la Glace (2:31)
19. Purification (Adele Carlier, Etsuko Chida) (4:06)
20. Vanessa (Sandrine Piau) (7:33)

 
Exact Audio Copy V0.99 prebeta 3 from 28. July 2007

EAC extraction logfile from 30. December 2008, 13:47

Armand Amar / Le Premier Cri

Used drive : HL-DT-STDVD-RAM GSA-H20L Adapter: 0 ID: 0

Read mode : SecureUtilize accurate stream : YesDefeat audio cache : YesMake use of C2 pointers : No

Read offset correction : 102Overread into Lead-In and Lead-Out : NoFill up missing offset samples with silence : YesDelete leading and trailing silent blocks : NoNull samples used in CRC calculations : YesUsed interface : Installed external ASPI interface

Used output format : Internal WAV RoutinesSample format : 44.100 Hz; 16 Bit; Stereo

TOC of the extracted CD

Track | Start | Length | Start sector | End sector --------------------------------------------------------- 1 | 0:00.00 | 3:29.36 | 0 | 15710 2 | 3:29.36 | 1:36.24 | 15711 | 22934 3 | 5:05.60 | 3:06.13 | 22935 | 36897 4 | 8:11.73 | 1:25.51 | 36898 | 43323 5 | 9:37.49 | 1:28.37 | 43324 | 49960 6 | 11:06.11 | 4:05.64 | 49961 | 68399 7 | 15:12.00 | 1:43.74 | 68400 | 76198 8 | 16:55.74 | 2:17.00 | 76199 | 86473 9 | 19:12.74 | 2:52.35 | 86474 | 99408 10 | 22:05.34 | 1:37.59 | 99409 | 106742 11 | 23:43.18 | 3:06.13 | 106743 | 120705 12 | 26:49.31 | 2:23.58 | 120706 | 131488 13 | 29:13.14 | 2:22.65 | 131489 | 142203 14 | 31:36.04 | 3:10.63 | 142204 | 156516 15 | 34:46.67 | 3:08.72 | 156517 | 170688 16 | 37:55.64 | 3:01.68 | 170689 | 184331 17 | 40:57.57 | 1:19.63 | 184332 | 190319 18 | 42:17.45 | 2:30.54 | 190320 | 201623 19 | 44:48.24 | 4:05.66 | 201624 | 220064 20 | 48:54.15 | 7:33.15 | 220065 | 254054

Range status and errors

Selected range

Filename C:\Armand Amar - Le Premier Cri.wav

Peak level 99.3 % Range quality 99.9 % Copy CRC B8D36F18 Copy OK

No errors occurred

AccurateRip summary

Track 1 not present in databaseTrack 2 not present in databaseTrack 3 not present in databaseTrack 4 not present in databaseTrack 5 not present in databaseTrack 6 not present in databaseTrack 7 not present in databaseTrack 8 not present in databaseTrack 9 not present in databaseTrack 10 not present in databaseTrack 11 not present in databaseTrack 12 not present in databaseTrack 13 not present in databaseTrack 14 not present in databaseTrack 15 not present in databaseTrack 16 not present in databaseTrack 17 not present in databaseTrack 18 not present in databaseTrack 19 not present in databaseTrack 20 not present in database

None of the tracks are present in the AccurateRip database

End of status report
 
auCDtect: CD records authenticity detector, version 0.8.2Copyright (c) 2004 Oleg Berngardt. All rights reserved.Copyright (c) 2004 Alexander Djourik. All rights reserved.------------------------------------------------------------Processing file: [Armand Amar - Le Premier Cri.wav]

------------------------------------------------------------This track looks like CDDA with probability 100%

------------------------------------------------------------Final Conclusion:------------------------------------------------------------These tracks looks like CDDA with probability 100%


Трекер:  [ 08-Июл-2011 23:58 ]

  

Скачать .torrent

Размер .torrent файла 12 KB


Размер: 294 MB
Хэш (hash) релиза: 17b7eb8803a0c4088a4aaa8add940d82a66cdf16

Еще никто не оставлял запись к записи скачать торрент Armand Amar - Le Premier Cri . Будь первым!

!Обратная связь