Скачать через торрент музыку Various Artists - The Rough Guide To Bollywood Gold - 2007, FLAC бесплатно без регистрации torrent

Если у вас наблюдаются проблемы со скриншотами, переходом по ссылками, скачиванием торрентов - проблемы в блокировщике рекламы AdBlock. #хорошегоДня!


Статистика раздачи
Размер:  305 MB   |    Зарегистрирован:  6 лет 2 месяца   |    .torrent скачан:  29 раз   |   
Раздают:  1  
   
Загрузка...
 
Автор Сообщение

Galfimbul

avatar Galfimbul


Various Artists - The Rough Guide To Bollywood Gold

Жанр: Soundtrack/Indian
Год выпуска диска: 2007
Производитель диска: World Music Network (UK)
Аудио кодек: FLAC
Тип рипа: tracks+.cue
Битрейт аудио: lossless
Продолжительность: 01:13:52
Рип: what.cd

Трэклист:
01. Joll Mukherjee & Srideevi - Chandni O Meri Chandni (4:43)
02. Kishore Kumar - Zindagi ek Safar Hai Suhana (4:21)
03. Rahul Dev Burman - Mehbooby Mehbooby (3:28)
04. Asha Bhosle - in Aankhon Ki Masti (5:43)
05. Asha Bhosle & Mohd. Rafi - Aaja Aaja main Hoon Pyar Tera (6:42)
06. Kishore Kumar & Lata Mangeshkar - Tere Chehre se nazar nahin (4:53)
07. Mohd. Rafi - Chahe Mujhe Koi Junglee Kahen (3:31)
08. Mukesh- Awaara Hoon (3:06)
09. Nagin - Theme instramental (1:20)
10. Lata Mangeshkar & Shailendra Singh - Chabi Kho Jaye (7:07)
11. Kishore Kumar - Yeh Shem Mastani (4:46)
12. Mahendra Kapoor & Chorus - Mere desh Ki Dharti (7:06)
13. Mukesh - Kehta Hai Joker (6:57)
14. Lata Mangeshkar - Chalte Chalte (5:52)
15. Kishore Kumar - Mere Sapno Ki Rani (4:15)

Сборник самых успешных ведущих исполнителей музыки и песен огромной индустрии индийского кино, известной под названием Bollywood.
Exact Audio Copy V0.99 prebeta 4 from 23. January 2008

EAC extraction logfile from 3. June 2009, 21:57

Various / The Rough Guide To Bollywood Gold

Used drive : TSSTcorpCDDVDW SH-S223F Adapter: 5 ID: 0

Read mode : Secure
Utilize accurate stream : Yes
Defeat audio cache : Yes
Make use of C2 pointers : No

Read offset correction : 6
Overread into Lead-In and Lead-Out : No
Fill up missing offset samples with silence : Yes
Delete leading and trailing silent blocks : No
Null samples used in CRC calculations : Yes
Used interface : Native Win32 interface for Win NT & 2000
Gap handling : Appended to previous track

Used output format : User Defined Encoder
Selected bitrate : 1024 kBit/s
Quality : High
Add ID3 tag : No
Command line compressor : C:\Program Files (x86)\Exact Audio Copy\FLAC\FLAC.EXE
Additional command line options : -V -8 -T "artist=%a" -T "title=%t" -T "album=%g" -T "date=%y" -T "tracknumber=%n" -T "genre=%m" %s

TOC of the extracted CD

Track | Start | Length | Start sector | End sector
---------------------------------------------------------
1 | 0:00.00 | 4:43.07 | 0 | 21231
2 | 4:43.07 | 4:20.38 | 21232 | 40769
3 | 9:03.45 | 3:28.30 | 40770 | 56399
4 | 12:32.00 | 5:42.65 | 56400 | 82114
5 | 18:14.65 | 6:42.22 | 82115 | 112286
6 | 24:57.12 | 4:53.11 | 112287 | 134272
7 | 29:50.23 | 3:31.23 | 134273 | 150120
8 | 33:21.46 | 3:06.19 | 150121 | 164089
9 | 36:27.65 | 1:19.59 | 164090 | 170073
10 | 37:47.49 | 7:07.05 | 170074 | 202103
11 | 44:54.54 | 4:46.19 | 202104 | 223572
12 | 49:40.73 | 7:05.65 | 223573 | 255512
13 | 56:46.63 | 6:56.54 | 255513 | 286766
14 | 63:43.42 | 5:52.01 | 286767 | 313167
15 | 69:35.43 | 4:14.50 | 313168 | 332267

Track 1

Filename R:\F L A C R I P S\VA - [2007] - The Rough Guide To Bollywood Gold [FLAC]\01 - Jolly Mukherjee & Sridevi -Chandni O Meri Chandni - Jolly Mukherjee & Sridevi -Chandni O Meri Chandni.wav

Pre-gap length 0:00:02.00

Peak level 86.1 %
Track quality 100.0 %
Test CRC 26BE64D1
Copy CRC 26BE64D1
Cannot be verified as accurate (confidence 1) [8BCC6880], AccurateRip returned [415928A7]
Copy OK

Track 2

Filename R:\F L A C R I P S\VA - [2007] - The Rough Guide To Bollywood Gold [FLAC]\02 - Kishore Kumar- Zindagi Ek Safar Hai Suhana - Kishore Kumar- Zindagi Ek Safar Hai Suhana.wav

Pre-gap length 0:00:02.00

Peak level 95.4 %
Track quality 100.0 %
Test CRC C3EB10E2
Copy CRC C3EB10E2
Cannot be verified as accurate (confidence 1) [A545AE65], AccurateRip returned [A2B8A0A3]
Copy OK

Track 3

Filename R:\F L A C R I P S\VA - [2007] - The Rough Guide To Bollywood Gold [FLAC]\03 - Rahul Dev Burman - Mehbooba Mehbooba - Rahul Dev Burman - Mehbooba Mehbooba.wav

Pre-gap length 0:00:02.00

Peak level 79.4 %
Track quality 100.0 %
Test CRC E520837C
Copy CRC E520837C
Cannot be verified as accurate (confidence 1) [DB478B71], AccurateRip returned [904D2573]
Copy OK

Track 4

Filename R:\F L A C R I P S\VA - [2007] - The Rough Guide To Bollywood Gold [FLAC]\04 - Asha Bhosle - In Aankhon Ki Masti - Asha Bhosle - In Aankhon Ki Masti.wav

Pre-gap length 0:00:02.00

Peak level 77.6 %
Track quality 100.0 %
Test CRC 2531F2A4
Copy CRC 2531F2A4
Cannot be verified as accurate (confidence 1) [BD4A8C16], AccurateRip returned [575CE25E]
Copy OK

Track 5

Filename R:\F L A C R I P S\VA - [2007] - The Rough Guide To Bollywood Gold [FLAC]\05 - Asha Bhosle & Mohd. Rafi - Aaja Aaja Main Hoon Pyar Tera - Asha Bhosle & Mohd. Rafi - Aaja Aaja Main Hoon Pyar Tera.wav

Pre-gap length 0:00:02.00

Peak level 95.5 %
Track quality 100.0 %
Test CRC 903A2AA4
Copy CRC 903A2AA4
Cannot be verified as accurate (confidence 1) [D946344F], AccurateRip returned [5F2B0393]
Copy OK

Track 6

Filename R:\F L A C R I P S\VA - [2007] - The Rough Guide To Bollywood Gold [FLAC]\06 - Kishore Kumar & Lata Mangeshkar - Tere Chehre Se Nazar Nahin - Kishore Kumar & Lata Mangeshkar - Tere Chehre Se Nazar Nahin.wav

Pre-gap length 0:00:02.00

Peak level 88.1 %
Track quality 100.0 %
Test CRC 275D152C
Copy CRC 275D152C
Cannot be verified as accurate (confidence 1) [86A77735], AccurateRip returned [93E5E17D]
Copy OK

Track 7

Filename R:\F L A C R I P S\VA - [2007] - The Rough Guide To Bollywood Gold [FLAC]\07 - Mohd. Rafi - Chahe Mujhe Koi Junglee Kahen - Mohd. Rafi - Chahe Mujhe Koi Junglee Kahen.wav

Pre-gap length 0:00:02.00

Peak level 95.5 %
Track quality 100.0 %
Test CRC 7F76B148
Copy CRC 7F76B148
Cannot be verified as accurate (confidence 1) [7F5152E8], AccurateRip returned [20FB9510]
Copy OK

Track 8

Filename R:\F L A C R I P S\VA - [2007] - The Rough Guide To Bollywood Gold [FLAC]\08 - Mukesh - Awaara Hoon - Mukesh - Awaara Hoon.wav

Pre-gap length 0:00:02.00

Peak level 88.1 %
Track quality 100.0 %
Test CRC DCB8E747
Copy CRC DCB8E747
Cannot be verified as accurate (confidence 1) [D710C37B], AccurateRip returned [89DB7D79]
Copy OK

Track 9

Filename R:\F L A C R I P S\VA - [2007] - The Rough Guide To Bollywood Gold [FLAC]\09 - Nagin - Theme Instrumental - Nagin - Theme Instrumental.wav

Pre-gap length 0:00:02.00

Peak level 84.1 %
Track quality 100.0 %
Test CRC C175EE5C
Copy CRC C175EE5C
Cannot be verified as accurate (confidence 1) [48F74268], AccurateRip returned [13B931CA]
Copy OK

Track 10

Filename R:\F L A C R I P S\VA - [2007] - The Rough Guide To Bollywood Gold [FLAC]\10 - Lata Mangeshkar & Shailendra Singh - Chabi Kho Jaye - Lata Mangeshkar & Shailendra Singh - Chabi Kho Jaye.wav

Pre-gap length 0:00:02.00

Peak level 92.2 %
Track quality 100.0 %
Test CRC 8516236F
Copy CRC 8516236F
Cannot be verified as accurate (confidence 1) [17D74319], AccurateRip returned [E4B6917B]
Copy OK

Track 11

Filename R:\F L A C R I P S\VA - [2007] - The Rough Guide To Bollywood Gold [FLAC]\11 - Kishore Kumar - Yeh Shem Mastani - Kishore Kumar - Yeh Shem Mastani.wav

Pre-gap length 0:00:02.00

Peak level 95.5 %
Track quality 99.9 %
Test CRC D864DD7A
Copy CRC D864DD7A
Cannot be verified as accurate (confidence 1) [14805175], AccurateRip returned [0204C497]
Copy OK

Track 12

Filename R:\F L A C R I P S\VA - [2007] - The Rough Guide To Bollywood Gold [FLAC]\12 - Mahendra Kapoor & Chorus - Mere Desh Ki Dharti - Mahendra Kapoor & Chorus - Mere Desh Ki Dharti.wav

Pre-gap length 0:00:02.00

Peak level 95.5 %
Track quality 100.0 %
Test CRC C59D0370
Copy CRC C59D0370
Cannot be verified as accurate (confidence 1) [578EB614], AccurateRip returned [DD417EAE]
Copy OK

Track 13

Filename R:\F L A C R I P S\VA - [2007] - The Rough Guide To Bollywood Gold [FLAC]\13 - Mukesh - Kehta Hai Joker - Mukesh - Kehta Hai Joker.wav

Pre-gap length 0:00:02.00

Peak level 84.1 %
Track quality 99.9 %
Test CRC 500898D5
Copy CRC 500898D5
Cannot be verified as accurate (confidence 1) [DAC981E9], AccurateRip returned [001C1EEB]
Copy OK

Track 14

Filename R:\F L A C R I P S\VA - [2007] - The Rough Guide To Bollywood Gold [FLAC]\14 - Lata Mangeshkar - Chalte Chalte - Lata Mangeshkar - Chalte Chalte.wav

Pre-gap length 0:00:02.00

Peak level 79.4 %
Track quality 100.0 %
Test CRC 92B8FE46
Copy CRC 92B8FE46
Cannot be verified as accurate (confidence 1) [195F0E49], AccurateRip returned [31874699]
Copy OK

Track 15

Filename R:\F L A C R I P S\VA - [2007] - The Rough Guide To Bollywood Gold [FLAC]\15 - Kishore Kumar - Mere Sapno Ki Rani - Kishore Kumar - Mere Sapno Ki Rani.wav

Pre-gap length 0:00:02.00

Peak level 88.1 %
Track quality 100.0 %
Test CRC A9D94899
Copy CRC A9D94899
Cannot be verified as accurate (confidence 1) [69B09706], AccurateRip returned [ADFB3984]
Copy OK

No tracks could be verified as accurate
You may have a different pressing from the one(s) in the database

No errors occurred

End of status report


Трекер:  [ 09-Июл-2011 00:00 ]

  

Скачать .torrent

Размер .torrent файла 13 KB


Размер: 305 MB
Хэш (hash) релиза: 48f0b7613d2b8b1b1aaadbce8e2ac95aea63a222

Еще никто не оставлял запись к записи скачать торрент Various Artists - The Rough Guide To Bollywood Gold - 2007, FLAC . Будь первым!

!Обратная связь