Скачать через торрент музыку - O.S.T. Les Plus Belles Musiques des Films de Louis De Funes бесплатно без регистрации torrent

Если у вас наблюдаются проблемы со скриншотами, переходом по ссылками, скачиванием торрентов - проблемы в блокировщике рекламы AdBlock. #хорошегоДня!


Статистика раздачи
Размер:  200 MB   |    Зарегистрирован:  6 лет 5 месяцев   |    .torrent скачан:  43 раза   |   
Раздают:  1  
   
Загрузка...
 
Автор Сообщение

Galfimbul

avatar Galfimbul


(Soundtrack) - Les Plus Belles Musiques des Films de Louis De Funes (Мания величия / Человек-оркестр / Разиня / Большая прогулка / Ресторан господина Септима)

Жанр: Soundtrack
Год выпуска диска: 1988
Производитель диска: France/Germany
Аудио кодек: FLAC
Тип рипа: image+.cue
Битрейт аудио: lossless
Продолжительность: 35.44 min.
Трэклист:


La Folie Des Grandeurs - 1971

01 Generique - 2.40
02 Flamenco / Zapateado - 4.37
03 Striptease de la duegne - 1.23
04 Capture de Cesar - 1.24
05 Arrivee du roi a L'Escorial - 1.23
06 Theme D'amour - 2.08

L'Homme Orchestre - 1970

07 Theme - 2.18

Le Corniaud - 1964

08 Generique - 1.57
09 Depart de Naples - 2.43
10 Antoine et Ursula - 2.45

La Grande Vadrouille - 1966

11 Pense a nous deux (Java) - 2.30
12 Sur Paris - 1.14
13 Rendez-vous au theatre Guignol - 2.10
14 Damnation de Faust-Berlioz D.P. Marche Hongroise - 1.43

Le Grand Restaurant - 1966

15 Le grand restaurant - 1.49
16 Theme du ballet - 1.34
17 Hymne du president Novales - 0.52

Доп. информация: Cборник музыки к фильмам с участием Луи де Фюнеса: "Мания величия", "Человек-оркестр", "Разиня", "Большая прогулка" и "Ресторан господина Септима". Рип с оригинала.
Exact Audio Copy V0.99 prebeta 3 from 28. July 2007

Отчёт EAC об извлечении, выполненном 19. августа 2008, 12:54

Polnareff-DeRoubaix-Delerue-Auric-Marion / Les plus belles musiques de Louis de FUNES

Дисковод: HL-DT-STDVDRAM GSA-E40N Adapter: 2 ID: 0

Режим чтения : Достоверность
Использование точного потока : Да
Отключение кэша аудио : Да
Использование указателей C2 : Нет

Коррекция смещения при чтении : 667
Способность читать области Lead-in и Lead-out : Нет
Заполнение пропущенных сэмплов тишиной : Да
Удаление блоков с тишиной в начале и конце : Нет
При вычислениях CRC использовались нулевые сэмплы : Да
Интерфейс : Встроенный Win32-интерфейс для Win NT/2000

Выходной формат : Пользовательский кодировщик
Выбранный битрейт : 768 kBit/s
Качество : Высокий
Добавление ID3-тэга : Нет
Утилита сжатия : C:\Program Files\Exact Audio Copy\FLAC\FLAC.EXE
Дополнительные параметры : -6 -V -T "ARTIST=%a" -T "TITLE=%t" -T "ALBUM=%g" -T "DATE=%y" -T "TRACKNUMBER=%n" -T "GENRE=%m" -T "COMMENT=%e" %s -o %d

TOC извлечённого CD

Трек | Старт | Длительность | Начальный сектор | Конечный сектор
---------------------------------------------------------------------
1 | 0:00.38 | 2:41.02 | 38 | 12114
2 | 2:41.40 | 4:39.38 | 12115 | 33077
3 | 7:21.03 | 1:25.15 | 33078 | 39467
4 | 8:46.18 | 1:25.62 | 39468 | 45904
5 | 10:12.05 | 1:24.15 | 45905 | 52219
6 | 11:36.20 | 2:09.45 | 52220 | 61939
7 | 13:45.65 | 2:20.28 | 61940 | 72467
8 | 16:06.18 | 2:00.12 | 72468 | 81479
9 | 18:06.30 | 2:45.23 | 81480 | 93877
10 | 20:51.53 | 2:47.55 | 93878 | 106457
11 | 23:39.33 | 2:31.60 | 106458 | 117842
12 | 26:11.18 | 1:15.45 | 117843 | 123512
13 | 27:26.63 | 2:12.32 | 123513 | 133444
14 | 29:39.20 | 1:44.25 | 133445 | 141269
15 | 31:23.45 | 1:50.55 | 141270 | 149574
16 | 33:14.25 | 1:35.45 | 149575 | 156744
17 | 34:49.70 | 0:52.43 | 156745 | 160687

Характеристики диапазона извлечения и сообщения об ошибках

Выбранный диапазон

Имя файла D:\Музыка\Torrents\Musiques Des Films De Louis De Funes\Polnareff-DeRoubaix-Delerue-Auric-Marion - Les plus belles musiques de Louis de FUNES.wav

Пиковый уровень 100.0 %
Качество диапазона 99.9 %
CRC копии 717E089D
Копирование... OK

Ошибок не произошло

Конец отчёта


Трекер:  [ 09-Июл-2011 00:02 ]

  

Скачать .torrent

Размер .torrent файла 16 KB


Размер: 200 MB
Хэш (hash) релиза: b37c5a8e027a38f32cbd4611a7c7c041c9f9ffe6

Еще никто не оставлял запись к записи скачать торрент - O.S.T. Les Plus Belles Musiques des Films de Louis De Funes . Будь первым!

!Обратная связь