Скачать через торрент музыку Дневник террориста Cal бесплатно без регистрации torrent

Если у вас наблюдаются проблемы со скриншотами, переходом по ссылками, скачиванием торрентов - проблемы в блокировщике рекламы AdBlock. #хорошегоДня!


Статистика раздачи
Размер:  185 MB   |    Зарегистрирован:  6 лет 2 месяца   |    .torrent скачан:  32 раза   |   
Раздают:  1  
   
Загрузка...
 
Автор Сообщение

Galfimbul

avatar Galfimbul


Дневник террориста / Cal

Жанр: Score
Композитор: Mark Knopfler
Год выпуска диска: 1984
Страна-производитель диска: Germany
Издатель (лейбл): Vertigo
Номер по каталогу: 822 769-2
EAN/UPC: отсутствует

Аудио кодек: FLAC (*.flac)
Тип рипа: image+.cue
Битрейт аудио: lossless
Продолжительность: 35:35

Источник: собственный рип
Наличие сканов в содержимом раздачи: да (600dpi)

01. Irish boy [0:04:44.40]
02. The road [0:02:06.50]
03. Waiting for her [0:00:40.13]
04. Irish love [0:02:29.37]
05. A secret place - Where will you go [0:01:37.38]
06. Father and son [0:06:46.00]
07. Meeting under the trees [0:00:58.37]
08. Potato picking [0:02:09.25]
09. In a secret place [0:01:14.50]
10. Fear and hatred [0:02:19.13]
11. Love and guilt [0:03:09.62]
12. The long road [0:07:19.50]
Первопресс саундтрека из 1984 г. Еще существует ремастер 1997 г., который выходил в виде HDCD.

О фильме: Кинопоиск, IMDB, Wikipedia
О саундтреке: soundtrackcollector.com, Discogs

Альбом в MP3: (Score) Дневник террориста / Cal (by Mark Knopfler) - 1984, MP3 (tracks), 320 kbps
Саундтрек уже имеется в лосслесс на трекере, правда в неверном разделе Classic Rock & Hard Rock (lossless):
(Rock) Mark Knopfler From the Film Cal - 1984, APE (image + .cue), lossless

Дело в том, что та раздача скорее сделана с пиратки, по крайней мере сравнение лог-файлов Cue-Tools об этом говорит:
 
[CUETools log; Date: 17.11.2010 00:53:43; Version: 2.0.9][CTDB TOCID: w5mAWMVbCT0l3qFj49gXW.q_Uf8-] disk not present in database.[AccurateRip ID: 000e8863-0086bc04-9808570c] disk not present in database.

Track Peak [ CRC32 ] [W/O NULL] -- 99,3 [ED2DA852] [04DE062C] 01 91,7 [3F6E3ABA] [BBC321F5] 02 29,4 [B1812113] [7C1E8555] 03 27,7 [C51F32BB] [6D903D0A] 04 41,3 [2881E809] [6FAE1BB4] 05 16,6 [30B1D61E] [5D9DA3CF] 06 84,4 [963D2D41] [BD1F8A12] 07 26,5 [388719E4] [8520D566] 08 41,3 [0B4FB23C] [26210959] 09 20,2 [DE857AED] [C7F13778] 10 99,3 [A1B73F5A] [A17D2BBB] 11 68,5 [2F00BC04] [08D3406B] 12 72,3 [6F1F75B3] [E1D40E44]
 
[CUETools log; Date: 29.11.2010 12:04:08; Version: 2.0.9]Pregap length 00:00:32.[CTDB TOCID: ra87bHicZZ7l.V0d9Oz8eXzk1SA-] disk not present in database.[AccurateRip ID: 000e8d49-0086df0e-9408570c] found.Track [ CRC ] Status 01 [f01ae30e] (059/139) Accurately ripped 02 [487e23cd] (061/142) Accurately ripped 03 [b2d944ea] (061/143) Accurately ripped 04 [26c52d75] (060/141) Accurately ripped 05 [ffaf1fac] (061/141) Accurately ripped 06 [6f6e0fd7] (060/139) Accurately ripped 07 [d9047d6c] (059/140) Accurately ripped 08 [1ac3e9cd] (059/140) Accurately ripped 09 [8d67ef9a] (059/140) Accurately ripped 10 [da86d9ed] (056/139) Accurately ripped 11 [28de565f] (060/140) Accurately ripped 12 [709fd435] (056/136) Accurately rippedOffsetted by -150: 01 [bf2176c6] (070/139) Accurately ripped 02 [d4f85586] (071/142) Accurately ripped 03 [bd630cda] (072/143) Accurately ripped 04 [a5a45336] (071/141) Accurately ripped 05 [01c9ad16] (070/141) Accurately ripped 06 [2dea77b1] (071/139) Accurately ripped 07 [2bb16779] (071/140) Accurately ripped 08 [e6d79eac] (071/140) Accurately ripped 09 [6d515f4f] (071/140) Accurately ripped 10 [1c2b1234] (071/139) Accurately ripped 11 [f38898d3] (070/140) Accurately ripped 12 [d870695d] (071/136) Accurately rippedOffsetted by 1334: 01 [ea2412f8] (006/139) Accurately ripped 02 [53af0137] (006/142) Accurately ripped 03 [f045907f] (006/143) Accurately ripped 04 [1a506e48] (006/141) Accurately ripped 05 [71a8bda6] (006/141) Accurately ripped 06 [eddba0ab] (005/139) Accurately ripped 07 [9aec73c1] (006/140) Accurately ripped 08 [88f8074b] (006/140) Accurately ripped 09 [13edc7b3] (006/140) Accurately ripped 10 [e6b76c80] (006/139) Accurately ripped 11 [a2c9ca51] (006/140) Accurately ripped 12 [812d9979] (005/136) Accurately rippedOffsetted by 1601: 01 [2ad8afd2] (004/139) Accurately ripped 02 [db63a87f] (004/142) Accurately ripped 03 [e8480d25] (004/143) Accurately ripped 04 [2b74ec97] (004/141) Accurately ripped 05 [7a7c4c2d] (004/141) Accurately ripped 06 [ef8c63e7] (003/139) Accurately ripped 07 [64f820d5] (004/140) Accurately ripped 08 [23e3619d] (004/140) Accurately ripped 09 [f18ec965] (004/140) Accurately ripped 10 [40d61254] (004/139) Accurately ripped 11 [444e725c] (004/140) Accurately ripped 12 [666dd05f] (004/136) Accurately ripped

Track Peak [ CRC32 ] [W/O NULL] [ LOG ] -- 100,0 [D0C4CB76] [15E94798] CRC32 01 100,0 [75663EEF] [E6C93478] 02 24,3 [C6AD9CA0] [4C5D809D] 03 26,8 [EE3C60CA] [DFE3A9B0] 04 37,2 [CADEB9B1] [FCACCAB8] 05 13,7 [274E2854] [F8815165] 06 100,0 [70336185] [8E153EA5] 07 22,4 [C9ABA9EE] [0CE5DB46] 08 37,8 [28DFACFB] [EAAA8D25] 09 18,1 [433E74FE] [572B5BC0] 10 91,9 [B51340DF] [DB6BA4C3] 11 71,1 [5635D748] [7F53B9EC] 12 100,0 [5A509E4D] [9496ABC4]

 
Exact Audio Copy V0.99 prebeta 5 from 4. May 2009

EAC extraction logfile from 29. November 2010, 11:44

Mark Knopfler / Soundtrack - Cal

Used drive : HL-DT-STDVDRAM_GSA-T20N Adapter: 0 ID: 0

Read mode : SecureUtilize accurate stream : YesDefeat audio cache : YesMake use of C2 pointers : No

Read offset correction : 667Overread into Lead-In and Lead-Out : NoFill up missing offset samples with silence : YesDelete leading and trailing silent blocks : NoNull samples used in CRC calculations : YesUsed interface : Native Win32 interface for Win NT & 2000

Used output format : User Defined EncoderSelected bitrate : 1024 kBit/sQuality : HighAdd ID3 tag : NoCommand line compressor : C:\Program Files\Exact Audio Copy\Flac\flac.exeAdditional command line options : -8 -V %s

TOC of the extracted CD

Track | Start | Length | Start sector | End sector --------------------------------------------------------- 1 | 0:00.32 | 4:44.40 | 32 | 21371 2 | 4:44.72 | 2:06.50 | 21372 | 30871 3 | 6:51.47 | 0:40.13 | 30872 | 33884 4 | 7:31.60 | 2:29.37 | 33885 | 45096 5 | 10:01.22 | 1:37.38 | 45097 | 52409 6 | 11:38.60 | 6:46.00 | 52410 | 82859 7 | 18:24.60 | 0:58.37 | 82860 | 87246 8 | 19:23.22 | 2:09.25 | 87247 | 96946 9 | 21:32.47 | 1:14.50 | 96947 | 102546 10 | 22:47.22 | 2:19.13 | 102547 | 112984 11 | 25:06.35 | 3:09.62 | 112985 | 127221 12 | 28:16.22 | 7:19.50 | 127222 | 160196

Range status and errors

Selected range

Filename C:\Music\Mark Knopfler - Soundtrack - Cal.wav

Peak level 100.0 % Range quality 100.0 % Test CRC D0C4CB76 Copy CRC D0C4CB76 Copy OK

No errors occurred

AccurateRip summary

Track 1 accurately ripped (confidence 59) [F01AE30E]Track 2 accurately ripped (confidence 61) [487E23CD]Track 3 accurately ripped (confidence 61) [B2D944EA]Track 4 accurately ripped (confidence 60) [26C52D75]Track 5 accurately ripped (confidence 61) [FFAF1FAC]Track 6 accurately ripped (confidence 60) [6F6E0FD7]Track 7 accurately ripped (confidence 59) [D9047D6C]Track 8 accurately ripped (confidence 59) [1AC3E9CD]Track 9 accurately ripped (confidence 59) [8D67EF9A]Track 10 accurately ripped (confidence 56) [DA86D9ED]Track 11 accurately ripped (confidence 60) [28DE565F]Track 12 accurately ripped (confidence 56) [709FD435]

All tracks accurately ripped

End of status report


Трекер:  [ 09-Июл-2011 00:02 ]

  

Скачать .torrent

Размер .torrent файла 15 KB


Размер: 185 MB
Хэш (hash) релиза: e31db91de2431cd4deca82c05473fa187fd86f08

Торренты, похожие на Дневник террориста Cal скачать торрент

Форум Название Автор Размер S L Добавлен
Саундтреки к фильмам и мультфильмам (mp3) ·· (Score) Дневник террориста / Cal (by Mark Knopfler) - 1984, MP3 (tracks), 320 kbps Mos 10282993398 MB 0 0 1291106219

11:36

30-Ноя-10

Еще никто не оставлял запись к записи скачать торрент Дневник террориста Cal . Будь первым!

!Обратная связь