Скачать через торрент музыку The Crow: Salvation | Ворон: Спасение - 2000, FLAC бесплатно без регистрации torrent

Если у вас наблюдаются проблемы со скриншотами, переходом по ссылками, скачиванием торрентов - проблемы в блокировщике рекламы AdBlock. #хорошегоДня!


Статистика раздачи
Размер:  526 MB   |    Зарегистрирован:  6 лет 2 месяца   |    .torrent скачан:  37 раз   |   
Раздают:  1  
   
Загрузка...
 
Автор Сообщение

Galfimbul

avatar Galfimbul


The Crow: Salvation | Ворон: Спасение
Жанр: Soundtrack
Год выпуска диска: 2000
Производитель диска: USA
Аудио кодек: FLAC
Тип рипа: tracks+.cue
Битрейт аудио: lossless
Продолжительность: 1:11:24

Трэклист:

01. Filter - The Best Things
02. Rob Zombie - Living Dead Girl ('Naked Exorcism' Mix)
03. The Infidels feat. Juliette Lewis - Bad Brother
04. Kid Rock - Warm Winter
05. Hole - It's All Over Now, Baby Blue
06. The Flys - What You Want
07. Monster Magnet - Big God
08. Sin - Painful
09. Tricky - Antihistamine
10. Days of the New - Independent Slaves
11. Pitchshifter - Everything Sucks (Again)
12. Stabbing Westward - Waking Up Beside You (Remix)
13. The Crystal Method - Now Is the Time ('The Crystal Method' Millennium Mix)
14. Static X, feat. Burton C. Bell of Fear Factory - Burning Inside
15. New American Shame - Rusted Wings
16. Danzig - Underbelly of the Beast
Exact Audio Copy V0.99 prebeta 5 from 4. May 2009

EAC extraction logfile from 15. November 2009, 14:21

Various Artists / The Crow: Salvation

Used drive : Optiarc DVD RW AD-7170A Adapter: 0 ID: 0

Read mode : Secure
Utilize accurate stream : Yes
Defeat audio cache : Yes
Make use of C2 pointers : No

Read offset correction : 48
Overread into Lead-In and Lead-Out : No
Fill up missing offset samples with silence : Yes
Delete leading and trailing silent blocks : No
Null samples used in CRC calculations : Yes
Used interface : Native Win32 interface for Win NT & 2000
Gap handling : Appended to previous track

Used output format : User Defined Encoder
Selected bitrate : 320 kBit/s
Quality : High
Add ID3 tag : No
Command line compressor : C:\Program Files\Exact Audio Copy\Flac\flac.exe
Additional command line options : -8 -V -T "ARTIST=%a" -T "TITLE=%t" -T "ALBUM=%g" -T "DATE=%y" -T "TRACKNUMBER=%n" -T "GENRE=%m" -T "COMMENT=EAC FLAC -8" %s

TOC of the extracted CD

Track | Start | Length | Start sector | End sector
---------------------------------------------------------
1 | 0:00.00 | 3:38.65 | 0 | 16414
2 | 3:38.65 | 4:10.32 | 16415 | 35196
3 | 7:49.22 | 5:23.48 | 35197 | 59469
4 | 13:12.70 | 4:05.22 | 59470 | 77866
5 | 17:18.17 | 3:37.33 | 77867 | 94174
6 | 20:55.50 | 3:26.70 | 94175 | 109694
7 | 24:22.45 | 5:58.05 | 109695 | 136549
8 | 30:20.50 | 3:51.00 | 136550 | 153874
9 | 34:11.50 | 4:38.25 | 153875 | 174749
10 | 38:50.00 | 4:36.70 | 174750 | 195519
11 | 43:26.70 | 4:27.67 | 195520 | 215611
12 | 47:54.62 | 6:00.00 | 215612 | 242611
13 | 53:54.62 | 5:36.43 | 242612 | 267854
14 | 59:31.30 | 4:13.30 | 267855 | 286859
15 | 63:44.60 | 3:32.15 | 286860 | 302774
16 | 67:17.00 | 4:07.00 | 302775 | 321299

Track 1

Filename E:\DownLoad\SoundTrack_The Crow_Salvation\01. Filter – The Best Things.wav

Pre-gap length 0:00:02.00

Peak level 99.7 %
Track quality 99.9 %
Test CRC 6FDCBF7B
Copy CRC 6FDCBF7B
Copy OK

Track 2

Filename E:\DownLoad\SoundTrack_The Crow_Salvation\02. Rob Zombie – Living Dead Girl ('Naked Exorcism' Mix).wav

Peak level 98.8 %
Track quality 100.0 %
Test CRC A12B6644
Copy CRC A12B6644
Copy OK

Track 3

Filename E:\DownLoad\SoundTrack_The Crow_Salvation\03. The Infidels feat. Juliette Lewis – Bad Brother.wav

Peak level 100.0 %
Track quality 100.0 %
Test CRC 96DF68B0
Copy CRC 96DF68B0
Copy OK

Track 4

Filename E:\DownLoad\SoundTrack_The Crow_Salvation\04. Kid Rock – Warm Winter.wav

Peak level 100.0 %
Track quality 100.0 %
Test CRC D1189988
Copy CRC D1189988
Copy OK

Track 5

Filename E:\DownLoad\SoundTrack_The Crow_Salvation\05. Hole – It's All Over Now, Baby Blue.wav

Peak level 100.0 %
Track quality 100.0 %
Test CRC 7897BD75
Copy CRC 7897BD75
Copy OK

Track 6

Filename E:\DownLoad\SoundTrack_The Crow_Salvation\06. The Flys – What You Want.wav

Peak level 98.8 %
Track quality 100.0 %
Test CRC D2FBB26E
Copy CRC D2FBB26E
Copy OK

Track 7

Filename E:\DownLoad\SoundTrack_The Crow_Salvation\07. Monster Magnet – Big God.wav

Peak level 98.8 %
Track quality 100.0 %
Test CRC 98EA6081
Copy CRC 98EA6081
Copy OK

Track 8

Filename E:\DownLoad\SoundTrack_The Crow_Salvation\08. Sin – Painful.wav

Peak level 98.9 %
Track quality 100.0 %
Test CRC F2ED7104
Copy CRC F2ED7104
Copy OK

Track 9

Filename E:\DownLoad\SoundTrack_The Crow_Salvation\09. Tricky – Antihistamine.wav

Peak level 100.0 %
Track quality 100.0 %
Test CRC 65EF7DF1
Copy CRC 65EF7DF1
Copy OK

Track 10

Filename E:\DownLoad\SoundTrack_The Crow_Salvation\10. Days of the New – Independent Slaves.wav

Peak level 98.8 %
Track quality 99.9 %
Test CRC 21FC8D7A
Copy CRC 21FC8D7A
Copy OK

Track 11

Filename E:\DownLoad\SoundTrack_The Crow_Salvation\11. Pitchshifter – Everything Sucks (Again).wav

Peak level 98.8 %
Track quality 100.0 %
Test CRC 141CF568
Copy CRC 141CF568
Copy OK

Track 12

Filename E:\DownLoad\SoundTrack_The Crow_Salvation\12. Stabbing Westward – Waking Up Beside You (Remix).wav

Peak level 98.9 %
Track quality 100.0 %
Test CRC 9F0D159D
Copy CRC 9F0D159D
Copy OK

Track 13

Filename E:\DownLoad\SoundTrack_The Crow_Salvation\13. The Crystal Method – Now Is the Time ('The Crystal Method' Millennium Mix).wav

Peak level 98.8 %
Track quality 100.0 %
Test CRC D62A60E8
Copy CRC D62A60E8
Copy OK

Track 14

Filename E:\DownLoad\SoundTrack_The Crow_Salvation\14. Static X, feat. Burton C. Bell of Fear Factory – Burning Inside.wav

Peak level 99.5 %
Track quality 100.0 %
Test CRC 12AB83BF
Copy CRC 12AB83BF
Copy OK

Track 15

Filename E:\DownLoad\SoundTrack_The Crow_Salvation\15. New American Shame – Rusted Wings.wav

Peak level 98.8 %
Track quality 99.9 %
Test CRC 6E28B77E
Copy CRC 6E28B77E
Copy OK

Track 16

Filename E:\DownLoad\SoundTrack_The Crow_Salvation\16. Danzig – Underbelly of the Beast.wav

Peak level 98.8 %
Track quality 100.0 %
Test CRC F9E3979A
Copy CRC F9E3979A
Copy OK

No errors occurred

End of status report



Трекер:  [ 09-Июл-2011 00:02 ]

  

Скачать .torrent

Размер .torrent файла 12 KB


Размер: 526 MB
Хэш (hash) релиза: 84bc74ef238b3425e6c68ba7c06dd4cb8b8bf3a8

Торренты, похожие на The Crow: Salvation | Ворон: Спасение - 2000, FLAC скачать торрент

Форум Название Автор Размер S L Добавлен
Саундтреки к фильмам и мультфильмам (lossless) ·· (Score) The Crow: Salvation | Ворон: Спасение (Marco Beltrami) - 2000, FLAC (tracks+.cue), lossless AqvaGen 290811919277 MB 0 0 1292270639

23:03

13-Дек-10

Еще никто не оставлял запись к записи скачать торрент The Crow: Salvation | Ворон: Спасение - 2000, FLAC . Будь первым!

!Обратная связь