Скачать через торрент музыку Eleni Karaindrou - Dust Of Time - 2009, FLAC бесплатно без регистрации torrent

Если у вас наблюдаются проблемы со скриншотами, переходом по ссылками, скачиванием торрентов - проблемы в блокировщике рекламы AdBlock. #хорошегоДня!


Статистика раздачи
Размер:  179 MB   |    Зарегистрирован:  6 лет 2 месяца   |    .torrent скачан:  2283 раза   |   
Раздают:  1  
   
Загрузка...
 
Автор Сообщение

Galfimbul

avatar Galfimbul


Eleni Karaindrou - Dust Of Time

Жанр: Score
Год выпуска диска: 2009
Аудио кодек: FLAC
Тип рипа: image+.cue
Битрейт аудио: lossless
Трэклист:
1. Le Temps Perdu
2. Dance Theme Var II
3. Notes I
4. Seeking Var II
5. Waltz By The River Unravelling Time I Tsiganiko I
6. Dance Theme Var I Seeking
7. Memories From Siberia Unravelling Time II Notes II
8. Tsiganiko II
9. Seeking Var I
10. Dance Theme
11. Le mal du pays
12. Nostalgia Song
13. Solitude
14. Adieu
Доп. информация:
Exact Audio Copy V0.99 prebeta 4 from 23. January 2008

EAC extraction logfile from 20. February 2009, 21:35

Eleni Karaindrou / Dust of Time

Used drive : MATSHITADVD-RAM UJ-875S Adapter: 1 ID: 0

Read mode : Secure
Utilize accurate stream : Yes
Defeat audio cache : Yes
Make use of C2 pointers : No

Read offset correction : 102
Overread into Lead-In and Lead-Out : No
Fill up missing offset samples with silence : Yes
Delete leading and trailing silent blocks : No
Null samples used in CRC calculations : Yes
Used interface : Installed external ASPI interface

Used output format : User Defined Encoder
Selected bitrate : 320 kBit/s
Quality : High
Add ID3 tag : Yes
Command line compressor : C:\Program Files\Exact Audio Copy\Flac\flac.exe
Additional command line options : --best -V -T "date=%y" -T "genre=%m" %s

TOC of the extracted CD

Track | Start | Length | Start sector | End sector
---------------------------------------------------------
1 | 0:00.00 | 2:14.27 | 0 | 10076
2 | 2:14.27 | 2:44.15 | 10077 | 22391
3 | 4:58.42 | 1:20.50 | 22392 | 28441
4 | 6:19.17 | 2:25.52 | 28442 | 39368
5 | 8:44.69 | 3:38.63 | 39369 | 55781
6 | 12:23.57 | 1:24.03 | 55782 | 62084
7 | 13:47.60 | 1:25.51 | 62085 | 68510
8 | 15:13.36 | 3:19.33 | 68511 | 83468
9 | 18:32.69 | 2:42.36 | 83469 | 95654
10 | 21:15.30 | 3:20.54 | 95655 | 110708
11 | 24:36.09 | 1:26.36 | 110709 | 117194
12 | 26:02.45 | 2:35.19 | 117195 | 128838
13 | 28:37.64 | 1:23.57 | 128839 | 135120
14 | 30:01.46 | 3:30.23 | 135121 | 150893
15 | 33:31.69 | 4:36.67 | 150894 | 171660
16 | 38:08.61 | 1:24.74 | 171661 | 178034
17 | 39:33.60 | 1:45.00 | 178035 | 185909
18 | 41:18.60 | 2:25.60 | 185910 | 196844
19 | 43:44.45 | 2:18.00 | 196845 | 207194

Range status and errors

Selected range

Filename D:\MY MUSIC\Eleni Karaindrou - Dust of Time.wav

Peak level 87.8 %
Range quality 100.0 %
Copy CRC A079D95A
Copy OK

No errors occurred

AccurateRip summary

Track 1 not present in database
Track 2 not present in database
Track 3 not present in database
Track 4 not present in database
Track 5 not present in database
Track 6 not present in database
Track 7 not present in database
Track 8 not present in database
Track 9 not present in database
Track 10 not present in database
Track 11 not present in database
Track 12 not present in database
Track 13 not present in database
Track 14 not present in database
Track 15 not present in database
Track 16 not present in database
Track 17 not present in database
Track 18 not present in database
Track 19 not present in database

None of the tracks are present in the AccurateRip database

End of status report
Одна из лучших женщин-композиторов продолжает радовать своим талантом - завораживающая, очень красивая, мелодичная музыка, которой нельзя не восторгаться!

Релиз с HQShare.net

Трекер:  [ 09-Июл-2011 00:02 ]

  

Скачать .torrent

Размер .torrent файла 16 KB


Размер: 179 MB
Хэш (hash) релиза: aa0de528e17801098d2e533e04a6b9e7b989af4c

Еще никто не оставлял запись к записи скачать торрент Eleni Karaindrou - Dust Of Time - 2009, FLAC . Будь первым!

!Обратная связь