Скачать через торрент музыку Frankies House бесплатно без регистрации torrent

Если у вас наблюдаются проблемы со скриншотами, переходом по ссылками, скачиванием торрентов - проблемы в блокировщике рекламы AdBlock. #хорошегоДня!


Статистика раздачи
Размер:  192 MB   |    Зарегистрирован:  6 лет 2 месяца   |    .torrent скачан:  45 раз   |   
Раздают:  1  
   
Загрузка...
 
Автор Сообщение

Galfimbul

avatar Galfimbul


Frankie's House (Jeff Beck & Jed Leiber)

Жанр: Score / Instrumental Rock
Год выпуска диска: 1992
Производитель диска: США
Аудио кодек: FLAC
Тип рипа: image+.cue
Битрейт аудио: lossless
Продолжительность: 0:41:11
Трэклист:
01) Jungle
02) Requiem for the Bao-Chi
03) Hi-Heel Sneakers
04) Thailand
05) Love and Death
06) Cathouse
07) In the Dark
08) Sniper Patrol
09) Peace Island
10) White Mice
11) Tunnel Rat
12) Vihn's Funeral
13) Apocalypse
14) Innocent Victim
15) Jungle Reprise
Доп. информация:
Вашему вниманию предлагается довольно интересная работа замечательного гитариста Джефа Бека - музыка для саундтрека к австралийскому сериалу Frankie's House, написанная им в сотрудничестве с клавишником Джедом Лейбером. Поклонникам стиля Джефа данный альбом должен прийти по душе - здесь "много" его гитары, а ряд композиций перекликается с его предыдущими и последующими медленными инструменталками, типа Where Were You и Declan.
Рип делался с собственного диска. Производитель: Epic. Каталожный номер: EK 53194. Номер матрицы: 1A EK53194 03 B1.
В раздаче полный комплект обложек.
 
Exact Audio Copy V0.99 prebeta 4 from 23. January 2008

EAC extraction logfile from 9. May 2010, 18:12

Jeff Beck & Jed Leiber / Frankie's House

Used drive : PIONEER DVD-RW DVR-216D Adapter: 0 ID: 0

Read mode : SecureUtilize accurate stream : YesDefeat audio cache : YesMake use of C2 pointers : No

Read offset correction : 96Overread into Lead-In and Lead-Out : NoFill up missing offset samples with silence : YesDelete leading and trailing silent blocks : NoNull samples used in CRC calculations : YesUsed interface : Native Win32 interface for Win NT & 2000

Used output format : Internal WAV RoutinesSample format : 44.100 Hz; 16 Bit; Stereo

TOC of the extracted CD

Track | Start | Length | Start sector | End sector --------------------------------------------------------- 1 | 0:00.00 | 2:05.32 | 0 | 9406 2 | 2:05.32 | 2:09.68 | 9407 | 19149 3 | 4:15.25 | 3:22.07 | 19150 | 34306 4 | 7:37.32 | 1:18.60 | 34307 | 40216 5 | 8:56.17 | 3:22.65 | 40217 | 55431 6 | 12:19.07 | 3:30.53 | 55432 | 71234 7 | 15:49.60 | 1:25.40 | 71235 | 77649 8 | 17:15.25 | 2:21.40 | 77650 | 88264 9 | 19:36.65 | 2:32.57 | 88265 | 99721 10 | 22:09.47 | 3:00.45 | 99722 | 113266 11 | 25:10.17 | 3:33.18 | 113267 | 129259 12 | 28:43.35 | 2:56.60 | 129260 | 142519 13 | 31:40.20 | 3:51.07 | 142520 | 159851 14 | 35:31.27 | 4:08.13 | 159852 | 178464 15 | 39:39.40 | 1:32.37 | 178465 | 185401

Range status and errors

Selected range

Filename F:\Torrents\Мои\Jeff Beck & Jed Leiber - Frankie's House.wav

Peak level 100.0 % Range quality 100.0 % Copy CRC 1EE0B388 Copy OK

No errors occurred

AccurateRip summary

Track 1 accurately ripped (confidence 2) [C7E612EB]Track 2 accurately ripped (confidence 2) [C715EED5]Track 3 accurately ripped (confidence 2) [2794AF6A]Track 4 accurately ripped (confidence 2) [90C17FA0]Track 5 accurately ripped (confidence 2) [CBA29838]Track 6 accurately ripped (confidence 2) [E99A2325]Track 7 accurately ripped (confidence 2) [099503E6]Track 8 accurately ripped (confidence 2) [5F1A786A]Track 9 accurately ripped (confidence 2) [349D7CD2]Track 10 accurately ripped (confidence 2) [84C814C5]Track 11 not present in databaseTrack 12 not present in databaseTrack 13 not present in databaseTrack 14 not present in databaseTrack 15 not present in database

0 track(s) accurately ripped 5 track(s) not present in the AccurateRip database

Some tracks could not be verified as accurate

End of status report


Трекер:  [ 09-Июл-2011 00:07 ]

  

Скачать .torrent

Размер .torrent файла 16 KB


Размер: 192 MB
Хэш (hash) релиза: 2c68c8a1c0d43e15f9330e65d48002968c78439f

Еще никто не оставлял запись к записи скачать торрент Frankies House . Будь первым!

!Обратная связь