Скачать через торрент музыку VA - Stark Raving Mad. Mixed by John Digweed & Nick Muir бесплатно без регистрации torrent

Если у вас наблюдаются проблемы со скриншотами, переходом по ссылками, скачиванием торрентов - проблемы в блокировщике рекламы AdBlock. #хорошегоДня!


Статистика раздачи
Размер:  862 MB   |    Зарегистрирован:  6 лет 5 месяцев   |    .torrent скачан:  46 раз   |   
Раздают:  1  
   
Загрузка...
 
Автор Сообщение

Galfimbul

avatar Galfimbul


Various Artists - Stark Raving Mad. Mixed by John Digweed & Nick Muir [Thrive Records]

Жанр: Soundtrack, Progressive House, Breakbeat
Год выпуска диска: 2003
Производитель диска: US [Thrive Records]
Аудио кодек: FLAC
Тип рипа: image+.cue
Продолжительность: 58:01 + 1:12:08
Трэклист:
1-01 Digweed & Muir Slingshot (4:04)
1-02 Fitalic Synchronic (5:56)
1-03 Digweed & Muir Gregory's Theme (1:43)
1-04 Moonface Children Of The Sun (6:33)
1-05 Shapeshifter Flood (7:10)
1-06 Tone Depth Rumble Fish (6:35)
1-07 Digweed & Muir Statue (0:46)
1-08 Pako & Frederik Purple Zone (5:42)
1-09 Look Fair Kritical (6:07)
1-10 Nuddles Locked On (5:34)
1-11 Digweed & Muir Rikki's Theme (1:25)
1-12 Fortunato & Montresor Imagine (6:20)

2-01 Evolution Walking On Fire (Ambiental Mix) (5:26)
2-02 Lemon8 Lose Control (10:47)
2-03 Luke Fair White Island (6:20)
2-04 Digweed & Muir Beautiful Strange (7:08)
2-05 Fitalic Synchronic (7:31)
2-06 Digweed & Muir Red Record (6:32)
2-07 Digweed & Muir Mondrian (5:39)
2-08 Voyager Time Travel (7:25)
2-09 Pole Folder & CP Apollo Vibes (6:09)
2-10 DJ Tamsin & Monk, The A Better Place (9:07)
AUDIOCHECKER v2.0 beta (build 457) - by Dester - opdester@freemail.hu
~~~~~~~~~~~~~~~~~~~~~~~~~~~~~~~~~~
-=== НЕ РЕДАКТИРУЙТЕ ЭТОТ ФАЙЛ! ===-

Путь: ...\VA - Stark Raving Mad. Mixed by John Digweed & Nick Muir

1 -=- Various - Stark Raving Mad. Mixed by John Digweed & Nick Muir CD1.wav -=- CDDA (100%)
2 -=- Various - Stark Raving Mad. Mixed by John Digweed & Nick Muir CD2.wav -=- CDDA (100%)

Сводка 100,00% CDDA

240963508
 
Exact Audio Copy V0.99 prebeta 4 from 23. January 2008

Отчёт EAC об извлечении, выполненном 1. мая 2009, 12:47

Various / Stark Raving Mad. Mixed by John Digweed & Nick Muir CD1

Дисковод: PLEXTOR DVDR PX-755A Adapter: 1 ID: 0

Режим чтения : ДостоверностьИспользование точного потока : ДаОтключение кэша аудио : ДаИспользование указателей C2 : Нет

Коррекция смещения при чтении : 30Способность читать области Lead-in и Lead-out : ДаЗаполнение пропущенных сэмплов тишиной : ДаУдаление блоков с тишиной в начале и конце : НетПри вычислениях CRC использовались нулевые сэмплы : ДаИнтерфейс : Встроенный Win32-интерфейс для Win NT/2000

Выходной формат : Внутренние WAV-операцииФормат сэмплов : 44.100 Гц; 16 бит; стерео

TOC извлечённого CD

Трек | Старт | Длительность | Начальный сектор | Конечный сектор --------------------------------------------------------------------- 1 | 0:00.00 | 4:04.53 | 0 | 18352 2 | 4:04.53 | 5:56.35 | 18353 | 45087 3 | 10:01.13 | 1:43.42 | 45088 | 52854 4 | 11:44.55 | 6:33.50 | 52855 | 82379 5 | 18:18.30 | 7:10.20 | 82380 | 114649 6 | 25:28.50 | 6:35.65 | 114650 | 144339 7 | 32:04.40 | 0:46.53 | 144340 | 147842 8 | 32:51.18 | 5:42.65 | 147843 | 173557 9 | 38:34.08 | 6:07.37 | 173558 | 201119 10 | 44:41.45 | 5:34.50 | 201120 | 226219 11 | 50:16.20 | 1:25.03 | 226220 | 232597 12 | 51:41.23 | 6:20.07 | 232598 | 261104

Характеристики диапазона извлечения и сообщения об ошибках

Выбранный диапазон

Имя файла D:\torrents-files\Uploads\VA - Stark Raving Mad. Mixed by John Digweed & Nick Muir\Various - Stark Raving Mad. Mixed by John Digweed & Nick Muir CD1.wav

Пиковый уровень 99.9 % Качество диапазона 100.0 % CRC теста 5DB81ADC CRC копии 5DB81ADC Копирование... OK

Ошибок не произошло

AccurateRip: сводка

Трек 1 точное извлечение (доверие 7) [3C3A086A]Трек 2 точное извлечение (доверие 7) [8C671F69]Трек 3 точное извлечение (доверие 7) [FBAE3817]Трек 4 точное извлечение (доверие 7) [ECE133C4]Трек 5 точное извлечение (доверие 7) [4EA4C42A]Трек 6 точное извлечение (доверие 7) [6B9A6D8A]Трек 7 точное извлечение (доверие 7) [04245A71]Трек 8 точное извлечение (доверие 7) [D03BFA27]Трек 9 точное извлечение (доверие 7) [347F48D1]Трек 10 точное извлечение (доверие 7) [423188D0]Трек 11 точное извлечение (доверие 7) [36744BC6]Трек 12 точное извлечение (доверие 7) [66EE76BC]

Все треки извлечены точно

Конец отчёта
 
Exact Audio Copy V0.99 prebeta 4 from 23. January 2008

Отчёт EAC об извлечении, выполненном 1. мая 2009, 13:14

Various / Stark Raving Mad. Mixed by John Digweed & Nick Muir CD2

Дисковод: PLEXTOR DVDR PX-755A Adapter: 1 ID: 0

Режим чтения : ДостоверностьИспользование точного потока : ДаОтключение кэша аудио : ДаИспользование указателей C2 : Нет

Коррекция смещения при чтении : 30Способность читать области Lead-in и Lead-out : ДаЗаполнение пропущенных сэмплов тишиной : ДаУдаление блоков с тишиной в начале и конце : НетПри вычислениях CRC использовались нулевые сэмплы : ДаИнтерфейс : Встроенный Win32-интерфейс для Win NT/2000

Выходной формат : Внутренние WAV-операцииФормат сэмплов : 44.100 Гц; 16 бит; стерео

TOC извлечённого CD

Трек | Старт | Длительность | Начальный сектор | Конечный сектор --------------------------------------------------------------------- 1 | 0:00.00 | 5:26.00 | 0 | 24449 2 | 5:26.00 | 10:47.22 | 24450 | 72996 3 | 16:13.22 | 6:20.53 | 72997 | 101549 4 | 22:34.00 | 7:08.20 | 101550 | 133669 5 | 29:42.20 | 7:31.71 | 133670 | 167565 6 | 37:14.16 | 6:32.53 | 167566 | 197018 7 | 43:46.69 | 5:39.07 | 197019 | 222450 8 | 49:26.01 | 7:25.15 | 222451 | 255840 9 | 56:51.16 | 6:09.35 | 255841 | 283550 10 | 63:00.51 | 9:07.25 | 283551 | 324600

Характеристики диапазона извлечения и сообщения об ошибках

Выбранный диапазон

Имя файла D:\torrents-files\Uploads\VA - Stark Raving Mad. Mixed by John Digweed & Nick Muir\Various - Stark Raving Mad. Mixed by John Digweed & Nick Muir CD2.wav

Пиковый уровень 99.9 % Качество диапазона 99.9 % CRC теста 1C0DE36D CRC копии 1C0DE36D Копирование... OK

Ошибок не произошло

AccurateRip: сводка

Трек 1 точное извлечение (доверие 6) [6332AA1D]Трек 2 точное извлечение (доверие 6) [A4156348]Трек 3 точное извлечение (доверие 6) [3A8B10C8]Трек 4 точное извлечение (доверие 6) [7E945284]Трек 5 точное извлечение (доверие 6) [35F4D73D]Трек 6 точное извлечение (доверие 6) [8D42E0D5]Трек 7 точное извлечение (доверие 6) [DDB83ADB]Трек 8 точное извлечение (доверие 6) [1FE623B3]Трек 9 точное извлечение (доверие 6) [40E2D365]Трек 10 точное извлечение (доверие 6) [BC470B1C]

Все треки извлечены точно

Конец отчёта
Источник: собственноручный рип с фирменного CD/original CD

Трекер:  [ 08-Июл-2011 23:43 ]

  

Скачать .torrent

Размер .torrent файла 18 KB


Размер: 862 MB
Хэш (hash) релиза: 7f58b2c3291373f119c1e332557e876fde8eb641

Еще никто не оставлял запись к записи скачать торрент VA - Stark Raving Mad. Mixed by John Digweed & Nick Muir . Будь первым!

!Обратная связь