Скачать через торрент музыку Барри Линдон Barry Lyndon бесплатно без регистрации torrent

Если у вас наблюдаются проблемы со скриншотами, переходом по ссылками, скачиванием торрентов - проблемы в блокировщике рекламы AdBlock. #хорошегоДня!


Статистика раздачи
Размер:  237 MB   |    Зарегистрирован:  6 лет 2 месяца   |    .torrent скачан:  55 раз   |   
Раздают:  1  
   
Загрузка...
 
Автор Сообщение

Galfimbul

avatar Galfimbul


Барри Линдон / Barry Lyndon


Жанр: Soundtrack
Год выпуска: 1975
Аудио кодек: FLAC
Тип рипа: tracks+.cue
Битрейт аудио: lossless
Продолжительность: 00:51:06
Рип: What CD
01. Georg Friedrich Haendel (Perf. National Philarmonic Orchestra) - Sarabande Main Title (2:43)
02. Sean O'Riada (Perf. The Chieftains) - Women Of Ireland (4:12)
03. Traditional - Piper's Maggot Jig (1:43)
04. Traditional (Perf. The Chieftains) - The Sea-Maiden (2:06)
05. Sean O'Riada (Perf. Paddy Moloney and Sean Potts) - Tin Whistles (3:45)
06. Traditional (Perf. Fifes and Drums) - British Grenadiers (2:15)
07. Fredrick The Great - Hohenfriedberger March (1:17)
08. Traditional (Perf. Fifes and Drums) - Lilliburlero (1:09)
09. Sean O'Riada (Perf. Derek Bell) - Women Of Ireland (0:56)
10. Wolfgang Amadeus Mozart - March From Idomeneo (1:33)
11. Georg Friedrich Haendel (Perf. National Philarmonic Orchestra) - Sarabande-Duel (3:15)
12. Traditional (Cond. Leslie Pearson) - Lilliburlero (0:55)
13. Franz Schubert (Perf. National Philarmonic Orchestra) - German Dance Nº 1 In C Major (2:18)
14. Georg Friedrich Haendel (Perf. National Philarmonic Orchestra) - Sarabande-Duel (0:52)
15. Giovanni Paisiello (Perf. National Philarmonic Orchestra) - Il Barbiere Di Siviglia (4:32)
16. Antonio Vivaldi - Cello Concerto In E Minor (3:53)
17. Johann Sebastian Bach - Concerto For Two Harpsichords And Orchetra In C Minor (5:17)
18. Franz Schubert - Piano Trio In E Flat, Op. 100 (4:18)
19. Georg Friedrich Haendel - Sarabande End-Title (4:09)
 
Exact Audio Copy V0.99 prebeta 4 from 23. January 2008

EAC extraction logfile from 23. February 2009, 12:02

Various / Barry Lyndon

Used drive : LITE-ON DVDRW SHW-160P6S Adapter: 0 ID: 0

Read mode : SecureUtilize accurate stream : YesDefeat audio cache : YesMake use of C2 pointers : No

Read offset correction : 6Overread into Lead-In and Lead-Out : NoFill up missing offset samples with silence : YesDelete leading and trailing silent blocks : NoNull samples used in CRC calculations : YesUsed interface : Native Win32 interface for Win NT & 2000Gap handling : Appended to previous track

Used output format : User Defined EncoderSelected bitrate : 768 kBit/sQuality : HighAdd ID3 tag : NoCommand line compressor : C:\Program Files (x86)\FLAC\flac.exeAdditional command line options : -V -8 -T "artist=%a" -T "title=%t" -T "album=%g" -T "date=%y" -T "tracknumber=%n" -T "genre=%m" %s

TOC of the extracted CD

Track | Start | Length | Start sector | End sector --------------------------------------------------------- 1 | 0:00.00 | 2:43.00 | 0 | 12224 2 | 2:43.00 | 4:12.07 | 12225 | 31131 3 | 6:55.07 | 1:43.33 | 31132 | 38889 4 | 8:38.40 | 2:06.12 | 38890 | 48351 5 | 10:44.52 | 3:44.60 | 48352 | 65211 6 | 14:29.37 | 2:14.43 | 65212 | 75304 7 | 16:44.05 | 1:17.10 | 75305 | 81089 8 | 18:01.15 | 1:08.40 | 81090 | 86229 9 | 19:09.55 | 0:55.50 | 86230 | 90404 10 | 20:05.30 | 1:32.57 | 90405 | 97361 11 | 21:38.12 | 3:15.15 | 97362 | 112001 12 | 24:53.27 | 0:54.53 | 112002 | 116104 13 | 25:48.05 | 2:17.57 | 116105 | 126436 14 | 28:05.62 | 0:51.40 | 126437 | 130301 15 | 28:57.27 | 4:31.58 | 130302 | 150684 16 | 33:29.10 | 3:53.15 | 150685 | 168174 17 | 37:22.25 | 5:16.40 | 168175 | 191914 18 | 42:38.65 | 4:18.30 | 191915 | 211294 19 | 46:57.20 | 4:09.00 | 211295 | 229969

Track 1

Filename C:\Music\Barry Lyndon\01 Sarabande Main Title.wav

Pre-gap length 0:00:02.00

Peak level 89.6 % Track quality 100.0 % Test CRC 8CFF9E6C Copy CRC 8CFF9E6C Accurately ripped (confidence 16) [E1541090] Copy OK

Track 2

Filename C:\Music\Barry Lyndon\02 Women of Ireland The Chieftains.wav

Pre-gap length 0:00:03.50

Peak level 54.0 % Track quality 100.0 % Test CRC DB05BED7 Copy CRC DB05BED7 Accurately ripped (confidence 16) [34FACF05] Copy OK

Track 3

Filename C:\Music\Barry Lyndon\03 Piper's Maggot.wav

Pre-gap length 0:00:02.80

Peak level 82.3 % Track quality 100.0 % Test CRC 517CDDD6 Copy CRC 517CDDD6 Accurately ripped (confidence 16) [9B1738EC] Copy OK

Track 4

Filename C:\Music\Barry Lyndon\04 The Sea-Maiden The Chieftains.wav

Pre-gap length 0:00:02.53

Peak level 46.1 % Track quality 99.9 % Test CRC A6218DCB Copy CRC A6218DCB Accurately ripped (confidence 16) [686D209A] Copy OK

Track 5

Filename C:\Music\Barry Lyndon\05 Tin Whistles.wav

Pre-gap length 0:00:02.13

Peak level 58.0 % Track quality 99.9 % Test CRC 741582EE Copy CRC 741582EE Accurately ripped (confidence 16) [6FFA5C16] Copy OK

Track 6

Filename C:\Music\Barry Lyndon\06 British Grenadiers.wav

Pre-gap length 0:00:01.69

Peak level 85.2 % Track quality 100.0 % Test CRC 3A5DB9E4 Copy CRC 3A5DB9E4 Accurately ripped (confidence 16) [2F04B088] Copy OK

Track 7

Filename C:\Music\Barry Lyndon\07 Hohenfriedberger March.wav

Pre-gap length 0:00:01.80

Peak level 84.1 % Track quality 100.0 % Test CRC 1A08355F Copy CRC 1A08355F Accurately ripped (confidence 16) [8DBF9887] Copy OK

Track 8

Filename C:\Music\Barry Lyndon\08 Lilliburlero.wav

Pre-gap length 0:00:02.40

Peak level 87.0 % Track quality 100.0 % Test CRC 0FCC8247 Copy CRC 0FCC8247 Accurately ripped (confidence 16) [FF5D957B] Copy OK

Track 9

Filename C:\Music\Barry Lyndon\09 Women of Ireland.wav

Pre-gap length 0:00:02.50

Peak level 59.3 % Track quality 100.0 % Test CRC 12183542 Copy CRC 12183542 Accurately ripped (confidence 16) [BE3212AA] Copy OK

Track 10

Filename C:\Music\Barry Lyndon\10 March From Idomeneo.wav

Pre-gap length 0:00:02.33

Peak level 78.6 % Track quality 100.0 % Test CRC A74115D3 Copy CRC A74115D3 Accurately ripped (confidence 16) [6D9371D4] Copy OK

Track 11

Filename C:\Music\Barry Lyndon\11 Sarabande-Duel.wav

Pre-gap length 0:00:02.82

Peak level 86.0 % Track quality 100.0 % Test CRC A4CD0BA8 Copy CRC A4CD0BA8 Accurately ripped (confidence 16) [D316C005] Copy OK

Track 12

Filename C:\Music\Barry Lyndon\12 Lilliburlero.wav

Pre-gap length 0:00:02.46

Peak level 59.5 % Track quality 100.0 % Test CRC AD89D3BA Copy CRC AD89D3BA Accurately ripped (confidence 16) [2FD688CC] Copy OK

Track 13

Filename C:\Music\Barry Lyndon\13 German Dance No. 1 in C-Major.wav

Pre-gap length 0:00:02.70

Peak level 80.6 % Track quality 100.0 % Test CRC 612586A2 Copy CRC 612586A2 Accurately ripped (confidence 16) [64F51ADB] Copy OK

Track 14

Filename C:\Music\Barry Lyndon\14 Sarabande-Duel.wav

Pre-gap length 0:00:03.06

Peak level 91.9 % Track quality 100.0 % Test CRC 7CBCD140 Copy CRC 7CBCD140 Accurately ripped (confidence 16) [2E432E61] Copy OK

Track 15

Filename C:\Music\Barry Lyndon\15 Il Barbiere Di Siviglia.wav

Pre-gap length 0:00:01.86

Peak level 74.0 % Track quality 100.0 % Test CRC 9B1A52AE Copy CRC 9B1A52AE Accurately ripped (confidence 16) [30C64228] Copy OK

Track 16

Filename C:\Music\Barry Lyndon\16 Cello Concerto in E-Minor.wav

Pre-gap length 0:00:02.86

Peak level 64.9 % Track quality 100.0 % Test CRC 4ECB3818 Copy CRC 4ECB3818 Accurately ripped (confidence 16) [9479DB51] Copy OK

Track 17

Filename C:\Music\Barry Lyndon\17 Concerto For Two Harpsichords And Orchestra In C-Minor.wav

Pre-gap length 0:00:02.17

Peak level 51.8 % Track quality 100.0 % Test CRC A2B23FA5 Copy CRC A2B23FA5 Accurately ripped (confidence 16) [5ADE125D] Copy OK

Track 18

Filename C:\Music\Barry Lyndon\18 Piano Trio In E-Flat.wav

Pre-gap length 0:00:02.77

Peak level 35.3 % Track quality 100.0 % Test CRC 298C8414 Copy CRC 298C8414 Accurately ripped (confidence 16) [AB27C3B0] Copy OK

Track 19

Filename C:\Music\Barry Lyndon\19 Sarabande End Title.wav

Pre-gap length 0:00:03.97

Peak level 88.2 % Track quality 100.0 % Test CRC 8CB9A1E1 Copy CRC 8CB9A1E1 Accurately ripped (confidence 16) [DDB47555] Copy OK

All tracks accurately ripped

No errors occurred

End of status report
 
REM GENRE SoundtrackREM DATE 1975REM DISCID E30BFA13REM COMMENT "ExactAudioCopy v0.99pb4"CATALOG 1901034632145PERFORMER "Various"TITLE "Barry Lyndon"FILE "01 Sarabande Main Title.wav" WAVE TRACK 01 AUDIO TITLE "Sarabande Main Title" PERFORMER "Sarabande Main Title" INDEX 01 00:00:00 TRACK 02 AUDIO TITLE "Women of Ireland The Chieftains" PERFORMER "Women of Ireland The Chieftains" INDEX 00 02:39:37FILE "02 Women of Ireland The Chieftains.wav" WAVE INDEX 01 00:00:00 TRACK 03 AUDIO TITLE "Piper's Maggot" PERFORMER "Piper's Maggot" INDEX 00 04:09:22FILE "03 Piper's Maggot.wav" WAVE INDEX 01 00:00:00 TRACK 04 AUDIO TITLE "The Sea-Maiden The Chieftains" PERFORMER "The Sea-Maiden The Chieftains" INDEX 00 01:40:68FILE "04 The Sea-Maiden The Chieftains.wav" WAVE INDEX 01 00:00:00 TRACK 05 AUDIO TITLE "Tin Whistles" PERFORMER "Tin Whistles" INDEX 00 02:04:02FILE "05 Tin Whistles.wav" WAVE INDEX 01 00:00:00 TRACK 06 AUDIO TITLE "British Grenadiers" PERFORMER "British Grenadiers" INDEX 00 03:43:08FILE "06 British Grenadiers.wav" WAVE INDEX 01 00:00:00 TRACK 07 AUDIO TITLE "Hohenfriedberger March" PERFORMER "Hohenfriedberger March" INDEX 00 02:12:58FILE "07 Hohenfriedberger March.wav" WAVE INDEX 01 00:00:00 TRACK 08 AUDIO TITLE "Lilliburlero" PERFORMER "Lilliburlero" INDEX 00 01:14:55FILE "08 Lilliburlero.wav" WAVE INDEX 01 00:00:00 TRACK 09 AUDIO TITLE " Women of Ireland" PERFORMER " Women of Ireland" INDEX 00 01:06:02FILE "09 Women of Ireland.wav" WAVE INDEX 01 00:00:00 TRACK 10 AUDIO TITLE "March From Idomeneo" PERFORMER "March From Idomeneo" INDEX 00 00:53:25FILE "10 March From Idomeneo.wav" WAVE INDEX 01 00:00:00 TRACK 11 AUDIO TITLE "Sarabande-Duel" PERFORMER "Sarabande-Duel" INDEX 00 01:29:70FILE "11 Sarabande-Duel.wav" WAVE INDEX 01 00:00:00 TRACK 12 AUDIO TITLE "Lilliburlero" PERFORMER "Lilliburlero" INDEX 00 03:12:55FILE "12 Lilliburlero.wav" WAVE INDEX 01 00:00:00 TRACK 13 AUDIO TITLE "German Dance No. 1 in C-Major" PERFORMER "German Dance No. 1 in C-Major" INDEX 00 00:52:00FILE "13 German Dance No. 1 in C-Major.wav" WAVE INDEX 01 00:00:00 TRACK 14 AUDIO TITLE "Sarabande-Duel" PERFORMER "Sarabande-Duel" INDEX 00 02:14:52FILE "14 Sarabande-Duel.wav" WAVE INDEX 01 00:00:00 TRACK 15 AUDIO TITLE "Il Barbiere Di Siviglia" PERFORMER "Il Barbiere Di Siviglia" INDEX 00 00:49:50FILE "15 Il Barbiere Di Siviglia.wav" WAVE INDEX 01 00:00:00 TRACK 16 AUDIO TITLE "Cello Concerto in E-Minor" PERFORMER "Cello Concerto in E-Minor" INDEX 00 04:28:68FILE "16 Cello Concerto in E-Minor.wav" WAVE INDEX 01 00:00:00 TRACK 17 AUDIO TITLE "Concerto For Two Harpsichords And Orchestra In C-Minor" PERFORMER "Concerto For Two Harpsichords And Orchestra In C-Minor" INDEX 00 03:51:02FILE "17 Concerto For Two Harpsichords And Orchestra In C-Minor.wav" WAVE INDEX 01 00:00:00 TRACK 18 AUDIO TITLE "Piano Trio In E-Flat" PERFORMER "Piano Trio In E-Flat" INDEX 00 05:13:57FILE "18 Piano Trio In E-Flat.wav" WAVE INDEX 01 00:00:00 TRACK 19 AUDIO TITLE "Sarabande End Title" PERFORMER "Georg Friedrich H?del" INDEX 00 04:14:32FILE "19 Sarabande End Title.wav" WAVE INDEX 01 00:00:00


Трекер:  [ 08-Июл-2011 23:53 ]

  

Скачать .torrent

Размер .torrent файла 20 KB


Размер: 237 MB
Хэш (hash) релиза: 349756289fd25ed41e8224d20cd02af8be67b927

Еще никто не оставлял запись к записи скачать торрент Барри Линдон Barry Lyndon . Будь первым!

!Обратная связь