Скачать через торрент музыку Звонок - Звонок 2 The Ring - The Ring Two бесплатно без регистрации torrent

Если у вас наблюдаются проблемы со скриншотами, переходом по ссылками, скачиванием торрентов - проблемы в блокировщике рекламы AdBlock. #хорошегоДня!


Статистика раздачи
Размер:  288 MB   |    Зарегистрирован:  6 лет 2 месяца   |    .torrent скачан:  43 раза   |   
Раздают:  1  
   
Загрузка...
 
Автор Сообщение

Galfimbul

avatar Galfimbul


Звонок - Звонок 2 / The Ring - The Ring Two
by Hans Zimmer, Henning Lohner & Martin Tillman
Жанр: Score
Год выпуска диска: 2005
Производитель диска: USA
Аудио кодек: FLAC
Тип рипа: tracks+.cue
Битрейт аудио: lossless
Продолжительность: 1:03:12
1. The Well
2. Before You Die You See The Ring
3. This Is Going To Hurt
4. Burning Tree
5. Not Your Mommy
6. Shelter Mountain
7. The Ferry
8. I'll Follow Your Voice
9. She Never Sleeps
10. Let The Dead Get In
11. Seven Days
12. Television
 
X Lossless Decoder version 20080926 (93.3)

XLD extraction logfile from 2009-02-05 22:06:02 -0500

Hans Zimmer, Henning Lohner & Martin Tillman / The Ring - The Ring Two Soundtrack

Used drive : MATSHITA DVD-R UJ-815 (revision D0CB)

Use cdparanoia mode : YES (CDParanoia III 10.2 engine)Disable audio cache : OK for the drive with cache less than 2750KBMake use of C2 pointers : NORead offset correction : 102Max retry count : 100

TOC of the extracted CD Track | Start | Length | Start sector | End sector --------------------------------------------------------- 1 | 00:00:00 | 11:24:47 | 0 | 51346 2 | 11:24:47 | 07:09:10 | 51347 | 83531 3 | 18:33:57 | 02:48:40 | 83532 | 96171 4 | 21:22:22 | 10:13:60 | 96172 | 142206 5 | 31:36:07 | 03:59:68 | 142207 | 160199 6 | 35:36:00 | 04:10:39 | 160200 | 178988 7 | 39:46:39 | 03:15:12 | 178989 | 193625 8 | 43:01:51 | 06:28:35 | 193626 | 222760 9 | 49:30:11 | 02:17:30 | 222761 | 233065 10 | 51:47:41 | 03:59:35 | 233066 | 251025 11 | 55:47:01 | 03:24:20 | 251026 | 266345 12 | 59:11:21 | 04:00:49 | 266346 | 284394

Track 01 Filename : /Users/don/Desktop/xld/Hans Zimmer, Henning Lohner & Martin Tillman - The Ring:The Ring 2 OST [FLAC]/01 Hans Zimmer, Henning Lohner & Martin Tillman - The Well.flac

CRC32 hash (test run) : 4C24A38F CRC32 hash : 4C24A38F CRC32 hash (skip zero) : EFC330E7 AccurateRip signature : 0E5793CE ->Accurately ripped! (confidence 2) Statistics Read error : 0 Skipped (treated as error) : 0 Edge jitter error (maybe fixed) : 0 Atom jitter error (maybe fixed) : 0 Drift error (maybe fixed) : 0 Dropped bytes error (maybe fixed) : 0 Duplicated bytes error (maybe fixed) : 0 Inconsistency in error sectors : 0

Track 02 Filename : /Users/don/Desktop/xld/Hans Zimmer, Henning Lohner & Martin Tillman - The Ring:The Ring 2 OST [FLAC]/02 Hans Zimmer, Henning Lohner & Martin Tillman - Before You Die, You See The Ring.flac

CRC32 hash (test run) : 5E4645FD CRC32 hash : 5E4645FD CRC32 hash (skip zero) : 63596E98 AccurateRip signature : FCBCD72A ->Accurately ripped! (confidence 2) Statistics Read error : 0 Skipped (treated as error) : 0 Edge jitter error (maybe fixed) : 0 Atom jitter error (maybe fixed) : 0 Drift error (maybe fixed) : 0 Dropped bytes error (maybe fixed) : 0 Duplicated bytes error (maybe fixed) : 0 Inconsistency in error sectors : 0

Track 03 Filename : /Users/don/Desktop/xld/Hans Zimmer, Henning Lohner & Martin Tillman - The Ring:The Ring 2 OST [FLAC]/03 Hans Zimmer, Henning Lohner & Martin Tillman - This Is Going To Hurt.flac

CRC32 hash (test run) : 608F2388 CRC32 hash : 608F2388 CRC32 hash (skip zero) : 47565CFA AccurateRip signature : EA75D47B ->Accurately ripped! (confidence 3) Statistics Read error : 0 Skipped (treated as error) : 0 Edge jitter error (maybe fixed) : 0 Atom jitter error (maybe fixed) : 0 Drift error (maybe fixed) : 0 Dropped bytes error (maybe fixed) : 0 Duplicated bytes error (maybe fixed) : 0 Inconsistency in error sectors : 0

Track 04 Filename : /Users/don/Desktop/xld/Hans Zimmer, Henning Lohner & Martin Tillman - The Ring:The Ring 2 OST [FLAC]/04 Hans Zimmer, Henning Lohner & Martin Tillman - Burning Tree.flac

CRC32 hash (test run) : 1D6F785F CRC32 hash : 1D6F785F CRC32 hash (skip zero) : 2DDD4256 AccurateRip signature : 973A07B8 ->Accurately ripped! (confidence 2) Statistics Read error : 0 Skipped (treated as error) : 0 Edge jitter error (maybe fixed) : 0 Atom jitter error (maybe fixed) : 0 Drift error (maybe fixed) : 0 Dropped bytes error (maybe fixed) : 0 Duplicated bytes error (maybe fixed) : 0 Inconsistency in error sectors : 0

Track 05 Filename : /Users/don/Desktop/xld/Hans Zimmer, Henning Lohner & Martin Tillman - The Ring:The Ring 2 OST [FLAC]/05 Hans Zimmer, Henning Lohner & Martin Tillman - Not Your Mommy.flac

CRC32 hash (test run) : F061C17F CRC32 hash : F061C17F CRC32 hash (skip zero) : 13384DF4 AccurateRip signature : A4CCF916 ->Accurately ripped! (confidence 2) Statistics Read error : 0 Skipped (treated as error) : 0 Edge jitter error (maybe fixed) : 0 Atom jitter error (maybe fixed) : 0 Drift error (maybe fixed) : 0 Dropped bytes error (maybe fixed) : 0 Duplicated bytes error (maybe fixed) : 0 Inconsistency in error sectors : 0

Track 06 Filename : /Users/don/Desktop/xld/Hans Zimmer, Henning Lohner & Martin Tillman - The Ring:The Ring 2 OST [FLAC]/06 Hans Zimmer, Henning Lohner & Martin Tillman - Shelter Mountain.flac

CRC32 hash (test run) : 5A223D76 CRC32 hash : 5A223D76 CRC32 hash (skip zero) : B54FEB61 AccurateRip signature : 5BA08422 ->Accurately ripped! (confidence 2) Statistics Read error : 0 Skipped (treated as error) : 0 Edge jitter error (maybe fixed) : 0 Atom jitter error (maybe fixed) : 0 Drift error (maybe fixed) : 0 Dropped bytes error (maybe fixed) : 0 Duplicated bytes error (maybe fixed) : 0 Inconsistency in error sectors : 0

Track 07 Filename : /Users/don/Desktop/xld/Hans Zimmer, Henning Lohner & Martin Tillman - The Ring:The Ring 2 OST [FLAC]/07 Hans Zimmer, Henning Lohner & Martin Tillman - The Ferry.flac

CRC32 hash (test run) : FC2E65C6 CRC32 hash : FC2E65C6 CRC32 hash (skip zero) : ECDDD9E2 AccurateRip signature : 35CCB3E7 ->Accurately ripped! (confidence 3) Statistics Read error : 0 Skipped (treated as error) : 0 Edge jitter error (maybe fixed) : 0 Atom jitter error (maybe fixed) : 0 Drift error (maybe fixed) : 0 Dropped bytes error (maybe fixed) : 0 Duplicated bytes error (maybe fixed) : 0 Inconsistency in error sectors : 0

Track 08 Filename : /Users/don/Desktop/xld/Hans Zimmer, Henning Lohner & Martin Tillman - The Ring:The Ring 2 OST [FLAC]/08 Hans Zimmer, Henning Lohner & Martin Tillman - I'll Follow Your Voice.flac

CRC32 hash (test run) : CD6497BB CRC32 hash : CD6497BB CRC32 hash (skip zero) : 560B36A7 AccurateRip signature : 2ECCD6E6 ->Accurately ripped! (confidence 2) Statistics Read error : 0 Skipped (treated as error) : 0 Edge jitter error (maybe fixed) : 0 Atom jitter error (maybe fixed) : 0 Drift error (maybe fixed) : 0 Dropped bytes error (maybe fixed) : 0 Duplicated bytes error (maybe fixed) : 0 Inconsistency in error sectors : 0

Track 09 Filename : /Users/don/Desktop/xld/Hans Zimmer, Henning Lohner & Martin Tillman - The Ring:The Ring 2 OST [FLAC]/09 Hans Zimmer, Henning Lohner & Martin Tillman - She Never Sleeps.flac

CRC32 hash (test run) : D2E34E83 CRC32 hash : D2E34E83 CRC32 hash (skip zero) : 9E855F6E AccurateRip signature : 3AEB7BE9 ->Accurately ripped! (confidence 2) Statistics Read error : 0 Skipped (treated as error) : 0 Edge jitter error (maybe fixed) : 0 Atom jitter error (maybe fixed) : 0 Drift error (maybe fixed) : 0 Dropped bytes error (maybe fixed) : 0 Duplicated bytes error (maybe fixed) : 0 Inconsistency in error sectors : 0

Track 10 Filename : /Users/don/Desktop/xld/Hans Zimmer, Henning Lohner & Martin Tillman - The Ring:The Ring 2 OST [FLAC]/10 Hans Zimmer, Henning Lohner & Martin Tillman - Let The Dead Get In.flac

CRC32 hash (test run) : 1146965C CRC32 hash : 1146965C CRC32 hash (skip zero) : BC6C4D7A AccurateRip signature : 5691C63F ->Accurately ripped! (confidence 2) Statistics Read error : 0 Skipped (treated as error) : 0 Edge jitter error (maybe fixed) : 0 Atom jitter error (maybe fixed) : 0 Drift error (maybe fixed) : 0 Dropped bytes error (maybe fixed) : 0 Duplicated bytes error (maybe fixed) : 0 Inconsistency in error sectors : 0

Track 11 Filename : /Users/don/Desktop/xld/Hans Zimmer, Henning Lohner & Martin Tillman - The Ring:The Ring 2 OST [FLAC]/11 Hans Zimmer, Henning Lohner & Martin Tillman - Seven Days.flac

CRC32 hash (test run) : 31A51943 CRC32 hash : 31A51943 CRC32 hash (skip zero) : 01926BEE AccurateRip signature : 481C25CC ->Accurately ripped! (confidence 2) Statistics Read error : 0 Skipped (treated as error) : 0 Edge jitter error (maybe fixed) : 0 Atom jitter error (maybe fixed) : 0 Drift error (maybe fixed) : 0 Dropped bytes error (maybe fixed) : 0 Duplicated bytes error (maybe fixed) : 0 Inconsistency in error sectors : 0

Track 12 Filename : /Users/don/Desktop/xld/Hans Zimmer, Henning Lohner & Martin Tillman - The Ring:The Ring 2 OST [FLAC]/12 Hans Zimmer, Henning Lohner & Martin Tillman - Television.flac

CRC32 hash (test run) : 41236240 CRC32 hash : 41236240 CRC32 hash (skip zero) : FFA0BA38 AccurateRip signature : C1F8C43D ->Accurately ripped! (confidence 2) Statistics Read error : 0 Skipped (treated as error) : 0 Edge jitter error (maybe fixed) : 0 Atom jitter error (maybe fixed) : 0 Drift error (maybe fixed) : 0 Dropped bytes error (maybe fixed) : 0 Duplicated bytes error (maybe fixed) : 0 Inconsistency in error sectors : 0

No errors occurred

End of status report


Трекер:  [ 08-Июл-2011 23:53 ]

  

Скачать .torrent

Размер .torrent файла 13 KB


Размер: 288 MB
Хэш (hash) релиза: a736196ec41d23447d4494f9064c93944c7a8e2d

Торренты, похожие на Звонок - Звонок 2 The Ring - The Ring Two скачать торрент

Форум Название Автор Размер S L Добавлен
Саундтреки к фильмам и мультфильмам (mp3) ·· (Score) Звонок и Звонок 2 / The Ring & The Ring Two (Hans Zimmer) - 2005, MP3 (tracks), 320 kbps Солнышко 151705589145 MB 0 0 1292268165

22:22

13-Дек-10

Еще никто не оставлял запись к записи скачать торрент Звонок - Звонок 2 The Ring - The Ring Two . Будь первым!

!Обратная связь