Скачать через торрент музыку Клубная мания Party Monster - 2003, FLAC бесплатно без регистрации torrent

Если у вас наблюдаются проблемы со скриншотами, переходом по ссылками, скачиванием торрентов - проблемы в блокировщике рекламы AdBlock. #хорошегоДня!


Статистика раздачи
Размер:  441 MB   |    Зарегистрирован:  6 лет 2 месяца   |    .torrent скачан:  50 раз   |   
Раздают:  1  
   
Загрузка...
 
Автор Сообщение

Galfimbul

avatar Galfimbul


Клубная мания / Party Monster

Жанр: Soundtrack
Год выпуска диска: 2003
Производитель диска: USA
Аудио кодек: FLAC
Тип рипа: tracks+.cue
Битрейт аудио: lossless
Продолжительность: 64:31
Трэклист:
1. Mannequin - Take me to the club
2. Ladytron - Seventeen
3. Miss Kitten and the Hacker - Frank Sinatra
4. Macaulay Culkin - Money Success Fame Glamour
5. Waldorf - You're My Disco
6. Stacey Q - Two Of Hearts
7. Tomcraft - Overdose
8. Happy Thought Hall - Get Happy
9. Vitalic - Le rock 01
10. Tones - Go!
11. Nina Hagen - New York New York
12. Scissor Sisters - It Can't Come Quickly Enough
13. W.I.T. - Inside Out
14. Stephen Tin Tin Duffy - Kiss Me (With Your Mouth)
15. Shannon - Give Me Tonight
16. ABC - How To Be a Millionaire
17. Keoki & High Lonesome Sound System - Crash
18. Marilyn Manson - La la song
19. Headrillaz And Ricky Barrow - Good Is Bad
 
Exact Audio Copy V0.99 prebeta 3 from 28. July 2007

EAC extraction logfile from 23. December 2007, 0:26

Various / Party Monster Soundtrack

Used drive : MATSHITADVD-R UJ-857D Adapter: 0 ID: 0

Read mode : SecureUtilize accurate stream : YesDefeat audio cache : YesMake use of C2 pointers : No

Read offset correction : 102Overread into Lead-In and Lead-Out : NoFill up missing offset samples with silence : YesDelete leading and trailing silent blocks : NoNull samples used in CRC calculations : YesUsed interface : Installed external ASPI interfaceGap handling : Appended to previous track

Used output format : User Defined EncoderSelected bitrate : 192 kBit/sQuality : HighAdd ID3 tag : NoCommand line compressor : C:\Program Files\Exact Audio Copy\flac.exeAdditional command line options : -8 -A tukey(0.25) -A gauss(0.1875) -b 4096 -V -T "artist=%a" -T "title=%t" -T "album=%g" -T "date=%y" -T "tracknumber=%n" -T "genre=%m" %s --sector-align

TOC of the extracted CD

Track | Start | Length | Start sector | End sector --------------------------------------------------------- 1 | 0:00.00 | 3:36.11 | 0 | 16210 2 | 3:36.11 | 3:30.74 | 16211 | 32034 3 | 7:07.10 | 3:52.72 | 32035 | 49506 4 | 11:00.07 | 3:23.05 | 49507 | 64736 5 | 14:23.12 | 4:27.04 | 64737 | 84765 6 | 18:50.16 | 3:36.61 | 84766 | 101026 7 | 22:27.02 | 2:57.34 | 101027 | 114335 8 | 25:24.36 | 3:28.33 | 114336 | 129968 9 | 28:52.69 | 3:05.31 | 129969 | 143874 10 | 31:58.25 | 2:34.42 | 143875 | 155466 11 | 34:32.67 | 4:41.40 | 155467 | 176581 12 | 39:14.32 | 3:32.30 | 176582 | 192511 13 | 42:46.62 | 3:36.20 | 192512 | 208731 14 | 46:23.07 | 3:26.22 | 208732 | 224203 15 | 49:49.29 | 3:52.74 | 224204 | 241677 16 | 53:42.28 | 3:35.28 | 241678 | 257830 17 | 57:17.56 | 2:54.17 | 257831 | 270897 18 | 60:11.73 | 1:32.13 | 270898 | 277810 19 | 61:44.11 | 2:55.72 | 277811 | 291007

Track 1

Filename C:\Documents and Settings\David Perlik\My Documents\EAC Output\01 - Mannequin - Take Me to the Club.wav

Pre-gap length 0:00:02.00

Peak level 97.7 % Track quality 100.0 % Copy CRC 72077065 Accurately ripped (confidence 1) [6DC213AB] Copy OK

Track 2

Filename C:\Documents and Settings\David Perlik\My Documents\EAC Output\02 - Ladytron - Seventeen.wav

Peak level 97.7 % Track quality 100.0 % Copy CRC 483DC138 Accurately ripped (confidence 1) [76718C16] Copy OK

Track 3

Filename C:\Documents and Settings\David Perlik\My Documents\EAC Output\03 - Miss Kitten & The Hacker - Frank Sinatra.wav

Peak level 97.7 % Track quality 100.0 % Copy CRC 44F89B59 Accurately ripped (confidence 1) [CDE5E9A3] Copy OK

Track 4

Filename C:\Documents and Settings\David Perlik\My Documents\EAC Output\04 - Felix Da Housecat vs. Pop Tarts feat. Macauley Culkin, Seth Green & Chloe Sevigny - Money, Success, Fame, Glamour (Remix).wav

Peak level 97.7 % Track quality 100.0 % Copy CRC BC02CADD Accurately ripped (confidence 1) [AAAA4DDE] Copy OK

Track 5

Filename C:\Documents and Settings\David Perlik\My Documents\EAC Output\05 - Waldorf - You're My Disco.wav

Peak level 97.7 % Track quality 100.0 % Copy CRC D127AC3C Accurately ripped (confidence 1) [2D60AA8F] Copy OK

Track 6

Filename C:\Documents and Settings\David Perlik\My Documents\EAC Output\06 - Stacey Q - Two of Hearts.wav

Peak level 97.7 % Track quality 99.9 % Copy CRC 6BE9F1C3 Accurately ripped (confidence 1) [410CCC4F] Copy OK

Track 7

Filename C:\Documents and Settings\David Perlik\My Documents\EAC Output\07 - Tomcraft - Overdose (Lady Radio Version).wav

Pre-gap length 0:00:01.08

Peak level 97.7 % Track quality 100.0 % Copy CRC CBF234DA Accurately ripped (confidence 1) [93C9B7CE] Copy OK

Track 8

Filename C:\Documents and Settings\David Perlik\My Documents\EAC Output\08 - Happy Thought Hall - Get Happy.wav

Peak level 97.7 % Track quality 100.0 % Copy CRC 342CE166 Accurately ripped (confidence 1) [979C8774] Copy OK

Track 9

Filename C:\Documents and Settings\David Perlik\My Documents\EAC Output\09 - Vitalic - Le Rock 01.wav

Peak level 97.7 % Track quality 100.0 % Copy CRC EC1DC400 Accurately ripped (confidence 1) [4EF3DB31] Copy OK

Track 10

Filename C:\Documents and Settings\David Perlik\My Documents\EAC Output\10 - Tones on Tail - Go! (Single Edit).wav

Peak level 97.7 % Track quality 100.0 % Copy CRC 3651C05E Accurately ripped (confidence 1) [D4E5338C] Copy OK

Track 11

Filename C:\Documents and Settings\David Perlik\My Documents\EAC Output\11 - Nina Hagen - New York, New York.wav

Peak level 97.7 % Track quality 100.0 % Copy CRC 3872A3F9 Accurately ripped (confidence 1) [792F08BE] Copy OK

Track 12

Filename C:\Documents and Settings\David Perlik\My Documents\EAC Output\12 - Scissor Sisters - It Can't Come Quickly Enough (Edit).wav

Peak level 97.7 % Track quality 100.0 % Copy CRC B5A9C283 Accurately ripped (confidence 1) [D41455F6] Copy OK

Track 13

Filename C:\Documents and Settings\David Perlik\My Documents\EAC Output\13 - W.I.T. - Inside Out.wav

Peak level 97.7 % Track quality 100.0 % Copy CRC 46AE3863 Accurately ripped (confidence 1) [221A0B9E] Copy OK

Track 14

Filename C:\Documents and Settings\David Perlik\My Documents\EAC Output\14 - Stephen 'Tin Tin' Duffy - Kiss Me.wav

Peak level 97.7 % Track quality 100.0 % Copy CRC 8DFBAA2D Accurately ripped (confidence 1) [12C0E8DB] Copy OK

Track 15

Filename C:\Documents and Settings\David Perlik\My Documents\EAC Output\15 - Shannon - Give Me Tonight.wav

Peak level 97.7 % Track quality 100.0 % Copy CRC 19813182 Accurately ripped (confidence 1) [D73756C3] Copy OK

Track 16

Filename C:\Documents and Settings\David Perlik\My Documents\EAC Output\16 - ABC - How to be a Millionaire.wav

Peak level 97.7 % Track quality 100.0 % Copy CRC A993B728 Accurately ripped (confidence 1) [7A2FD9F6] Copy OK

Track 17

Filename C:\Documents and Settings\David Perlik\My Documents\EAC Output\17 - Keoki - Crash (Original Mix).wav

Peak level 97.7 % Track quality 100.0 % Copy CRC EAB43B1A Accurately ripped (confidence 1) [505B8F65] Copy OK

Track 18

Filename C:\Documents and Settings\David Perlik\My Documents\EAC Output\18 - Marilyn Manson as Christina - The La La Song.wav

Peak level 97.7 % Track quality 100.0 % Copy CRC 7B615D4D Accurately ripped (confidence 1) [7F75406B] Copy OK

Track 19

Filename C:\Documents and Settings\David Perlik\My Documents\EAC Output\19 - Headrillaz feat. Ricky Barrow - Good is Bad.wav

Peak level 97.7 % Track quality 100.0 % Copy CRC 449CE7B9 Accurately ripped (confidence 1) [553CA2C5] Copy OK

All tracks accurately ripped

No errors occurred

End of status report


Трекер:  [ 08-Июл-2011 23:53 ]

  

Скачать .torrent

Размер .torrent файла 19 KB


Размер: 441 MB
Хэш (hash) релиза: 55d651bae9b910fea3b43ce1bfcb2110d4656a80

Еще никто не оставлял запись к записи скачать торрент Клубная мания Party Monster - 2003, FLAC . Будь первым!

!Обратная связь