Скачать через торрент музыку Ghosts of the Abyss | Призраки бездны: Титаник бесплатно без регистрации torrent

Если у вас наблюдаются проблемы со скриншотами, переходом по ссылками, скачиванием торрентов - проблемы в блокировщике рекламы AdBlock. #хорошегоДня!


Статистика раздачи
Размер:  266 MB   |    Зарегистрирован:  6 лет 5 месяцев   |    .torrent скачан:  39 раз   |   
Раздают:  1  
   
Загрузка...
 
Автор Сообщение

Galfimbul

avatar Galfimbul


Ghosts of the Abyss | Призраки бездны: Титаник
Жанр: Score
Год выпуска диска: 2003
Производитель диска: USA
Аудио кодек: FLAC
Тип рипа: tracks+.cue
Битрейт аудио: lossless
Продолжительность: 58:41
1. Departure (performed by Glen Phillips)
2. Main Title
3. Apprehension
4. Getting Ready
5. Titanic Revealed
6. Floating Above The Deck
7. Dangerous Recovery
8. Valse Septembre (composed by Felix Godin)
9. The Windows
10. Jake And Elwood
11. The Bots Go In (composed by Ivan Caryll And Lionel Monckton)
12. Titsy Bitsy Girl
13. The Grand Staircase
14. Exploring The Staterooms
15. Song Without Words (composed by Peter Ilyich Tchaikovsky)
16. Elegance Past
17. Building The Ship
18. I... I Had To Go
19. The Ship's Engines
20. Alexander's Ragtime Band (composed by Irving Berlin)
21. The Final Day
22. The End
23. Memorials
24. Go Towards The Light
25. The Next Morning
26. Nearer My God To Thee (composed by John Dykes)
27. Saying Goodbye To Titanic
28. Eternal Father, Strong To Save (composed by John Dykes And William Whiting)
29. Darkness, Darkness (performed by Lisa Torban)

Exact Audio Copy V0.99 prebeta 5 from 4. May 2009

EAC extraction logfile from 4. November 2009, 12:46

Joel McNeely / Ghosts of the Abyss

Used drive : Optiarc DVD RW AD-7170A Adapter: 0 ID: 0

Read mode : Secure
Utilize accurate stream : Yes
Defeat audio cache : Yes
Make use of C2 pointers : No

Read offset correction : 48
Overread into Lead-In and Lead-Out : No
Fill up missing offset samples with silence : Yes
Delete leading and trailing silent blocks : No
Null samples used in CRC calculations : Yes
Used interface : Native Win32 interface for Win NT & 2000
Gap handling : Appended to previous track

Used output format : User Defined Encoder
Selected bitrate : 320 kBit/s
Quality : High
Add ID3 tag : No
Command line compressor : C:\Program Files\Exact Audio Copy\Flac\flac.exe
Additional command line options : -8 -V -T "ARTIST=%a" -T "TITLE=%t" -T "ALBUM=%g" -T "DATE=%y" -T "TRACKNUMBER=%n" -T "GENRE=%m" -T "COMMENT=EAC FLAC -8" %s

TOC of the extracted CD

Track | Start | Length | Start sector | End sector
---------------------------------------------------------
1 | 0:00.00 | 2:33.73 | 0 | 11547
2 | 2:33.73 | 1:16.36 | 11548 | 17283
3 | 3:50.34 | 1:29.32 | 17284 | 23990
4 | 5:19.66 | 1:20.48 | 23991 | 30038
5 | 6:40.39 | 3:11.19 | 30039 | 44382
6 | 9:51.58 | 3:01.04 | 44383 | 57961
7 | 12:52.62 | 1:28.13 | 57962 | 64574
8 | 14:21.00 | 2:19.63 | 64575 | 75062
9 | 16:40.63 | 0:47.27 | 75063 | 78614
10 | 17:28.15 | 2:14.06 | 78615 | 88670
11 | 19:42.21 | 1:33.49 | 88671 | 95694
12 | 21:15.70 | 1:53.63 | 95695 | 104232
13 | 23:09.58 | 1:33.51 | 104233 | 111258
14 | 24:43.34 | 1:51.09 | 111259 | 119592
15 | 26:34.43 | 2:26.66 | 119593 | 130608
16 | 29:01.34 | 2:10.30 | 130609 | 140388
17 | 31:11.64 | 1:28.15 | 140389 | 147003
18 | 32:40.04 | 1:54.56 | 147004 | 155609
19 | 34:34.60 | 1:42.08 | 155610 | 163267
20 | 36:16.68 | 1:53.48 | 163268 | 171790
21 | 38:10.41 | 2:15.67 | 171791 | 181982
22 | 40:26.33 | 3:17.55 | 181983 | 196812
23 | 43:44.13 | 1:18.35 | 196813 | 202697
24 | 45:02.48 | 1:31.02 | 202698 | 209524
25 | 46:33.50 | 2:08.58 | 209525 | 219182
26 | 48:42.33 | 0:55.26 | 219183 | 223333
27 | 49:37.59 | 1:55.31 | 223334 | 231989
28 | 51:33.15 | 3:02.32 | 231990 | 245671
29 | 54:35.47 | 4:05.73 | 245672 | 264119

Track 1

Filename E:\DownLoad\soundTrack_Ghosts of the Abyss\ 01. Joel McNeely – Departure - Glen Phillips.wav

Pre-gap length 0:00:02.00

Peak level 76.5 %
Track quality 100.0 %
Test CRC BD685196
Copy CRC BD685196
Copy OK

Track 2

Filename E:\DownLoad\soundTrack_Ghosts of the Abyss\ 02. Joel McNeely – Main Title.wav

Peak level 96.9 %
Track quality 100.0 %
Test CRC 1481331C
Copy CRC 1481331C
Copy OK

Track 3

Filename E:\DownLoad\soundTrack_Ghosts of the Abyss\ 03. Joel McNeely – Apprenhension.wav

Peak level 49.8 %
Track quality 100.0 %
Test CRC 2302390A
Copy CRC 2302390A
Copy OK

Track 4

Filename E:\DownLoad\soundTrack_Ghosts of the Abyss\ 04. Joel McNeely – Getting Ready.wav

Peak level 59.0 %
Track quality 99.8 %
Test CRC FDF3BBD1
Copy CRC FDF3BBD1
Copy OK

Track 5

Filename E:\DownLoad\soundTrack_Ghosts of the Abyss\ 05. Joel McNeely – Titanic Revealed.wav

Peak level 85.6 %
Track quality 99.9 %
Test CRC E84FBDFA
Copy CRC E84FBDFA
Copy OK

Track 6

Filename E:\DownLoad\soundTrack_Ghosts of the Abyss\ 06. Joel McNeely – Floating Above The Deck.wav

Peak level 96.9 %
Track quality 100.0 %
Test CRC F4FE455E
Copy CRC F4FE455E
Copy OK

Track 7

Filename E:\DownLoad\soundTrack_Ghosts of the Abyss\ 07. Joel McNeely – Dangeours Recovery.wav

Peak level 96.8 %
Track quality 100.0 %
Test CRC C2B65528
Copy CRC C2B65528
Copy OK

Track 8

Filename E:\DownLoad\soundTrack_Ghosts of the Abyss\ 08. Joel McNeely – Valse Septembre.wav

Peak level 90.9 %
Track quality 100.0 %
Test CRC 8F0B575B
Copy CRC 8F0B575B
Copy OK

Track 9

Filename E:\DownLoad\soundTrack_Ghosts of the Abyss\ 09. Joel McNeely – The Windows.wav

Peak level 27.5 %
Track quality 100.0 %
Test CRC BC208309
Copy CRC BC208309
Copy OK

Track 10

Filename E:\DownLoad\soundTrack_Ghosts of the Abyss\ 10. Joel McNeely – Jake And Elwood.wav

Peak level 66.9 %
Track quality 100.0 %
Test CRC FDB6C937
Copy CRC FDB6C937
Copy OK

Track 11

Filename E:\DownLoad\soundTrack_Ghosts of the Abyss\ 11. Joel McNeely – The Bots Go In.wav

Peak level 76.1 %
Track quality 99.8 %
Test CRC FD827ECE
Copy CRC FD827ECE
Copy OK

Track 12

Filename E:\DownLoad\soundTrack_Ghosts of the Abyss\ 12. Joel McNeely – Titsy Bitsy Girl.wav

Peak level 84.9 %
Track quality 100.0 %
Test CRC DA6940A4
Copy CRC DA6940A4
Copy OK

Track 13

Filename E:\DownLoad\soundTrack_Ghosts of the Abyss\ 13. Joel McNeely – The Grand Staircase.wav

Peak level 47.0 %
Track quality 100.0 %
Test CRC 20548B3D
Copy CRC 20548B3D
Copy OK

Track 14

Filename E:\DownLoad\soundTrack_Ghosts of the Abyss\ 14. Joel McNeely – Exploring The Staterooms.wav

Peak level 66.9 %
Track quality 100.0 %
Test CRC 566844BB
Copy CRC 566844BB
Copy OK

Track 15

Filename E:\DownLoad\soundTrack_Ghosts of the Abyss\ 15. Joel McNeely – Song Without Words.wav

Peak level 95.8 %
Track quality 100.0 %
Test CRC 99FF7CC6
Copy CRC 99FF7CC6
Copy OK

Track 16

Filename E:\DownLoad\soundTrack_Ghosts of the Abyss\ 16. Joel McNeely – Elegance Past.wav

Peak level 68.0 %
Track quality 100.0 %
Test CRC 651A97BF
Copy CRC 651A97BF
Copy OK

Track 17

Filename E:\DownLoad\soundTrack_Ghosts of the Abyss\ 17. Joel McNeely – Building The Ship.wav

Peak level 82.4 %
Track quality 100.0 %
Test CRC 61C9E4CC
Copy CRC 61C9E4CC
Copy OK

Track 18

Filename E:\DownLoad\soundTrack_Ghosts of the Abyss\ 18. Joel McNeely – I...I Had To Go.wav

Peak level 56.0 %
Track quality 100.0 %
Test CRC 2F34533B
Copy CRC 2F34533B
Copy OK

Track 19

Filename E:\DownLoad\soundTrack_Ghosts of the Abyss\ 19. Joel McNeely – The Ship's Engines.wav

Peak level 64.3 %
Track quality 100.0 %
Test CRC E327F980
Copy CRC E327F980
Copy OK

Track 20

Filename E:\DownLoad\soundTrack_Ghosts of the Abyss\ 20. Joel McNeely – Alexander's Ragtime Band.wav

Peak level 64.9 %
Track quality 100.0 %
Test CRC 14D777CB
Copy CRC 14D777CB
Copy OK

Track 21

Filename E:\DownLoad\soundTrack_Ghosts of the Abyss\ 21. Joel McNeely – The Final Day.wav

Peak level 72.8 %
Track quality 100.0 %
Test CRC B47E8F44
Copy CRC B47E8F44
Copy OK

Track 22

Filename E:\DownLoad\soundTrack_Ghosts of the Abyss\ 22. Joel McNeely – The End.wav

Peak level 96.9 %
Track quality 100.0 %
Test CRC ED5F989C
Copy CRC ED5F989C
Copy OK

Track 23

Filename E:\DownLoad\soundTrack_Ghosts of the Abyss\ 23. Joel McNeely – Memorials.wav

Peak level 62.9 %
Track quality 100.0 %
Test CRC 69D52EF4
Copy CRC 69D52EF4
Copy OK

Track 24

Filename E:\DownLoad\soundTrack_Ghosts of the Abyss\ 24. Joel McNeely – Go Toward The Light.wav

Peak level 76.8 %
Track quality 100.0 %
Test CRC 02ADAFD7
Copy CRC 02ADAFD7
Copy OK

Track 25

Filename E:\DownLoad\soundTrack_Ghosts of the Abyss\ 25. Joel McNeely – The Next Morning.wav

Peak level 91.4 %
Track quality 100.0 %
Test CRC 8302FC2F
Copy CRC 8302FC2F
Copy OK

Track 26

Filename E:\DownLoad\soundTrack_Ghosts of the Abyss\ 26. Joel McNeely – Nearer My God To Thee.wav

Peak level 28.5 %
Track quality 100.0 %
Test CRC 5BFB7E37
Copy CRC 5BFB7E37
Copy OK

Track 27

Filename E:\DownLoad\soundTrack_Ghosts of the Abyss\ 27. Joel McNeely – Saying Goodbye To Titanic.wav

Peak level 40.7 %
Track quality 100.0 %
Test CRC 79420794
Copy CRC 79420794
Copy OK

Track 28

Filename E:\DownLoad\soundTrack_Ghosts of the Abyss\ 28. Joel McNeely – Eternal Father, Strong To Save.wav

Peak level 90.8 %
Track quality 100.0 %
Test CRC B4E36D5B
Copy CRC B4E36D5B
Copy OK

Track 29

Filename E:\DownLoad\soundTrack_Ghosts of the Abyss\ 29. Joel McNeely – Darkness, Darkness - Lisa Torban.wav

Peak level 54.3 %
Track quality 97.1 %
Test CRC 45DAB419
Copy CRC 948E441E
Copy OK

No errors occurred

End of status report



Трекер:  [ 08-Июл-2011 23:54 ]

  

Скачать .torrent

Размер .torrent файла 13 KB


Размер: 266 MB
Хэш (hash) релиза: 411e321ed08bf2c9b9c26cda136dda2f95cb7f83

Еще никто не оставлял запись к записи скачать торрент Ghosts of the Abyss | Призраки бездны: Титаник . Будь первым!

!Обратная связь