Скачать через торрент музыку John Lurie - Music From Down By Law & Variety - 1999, FLAC бесплатно без регистрации torrent

Если у вас наблюдаются проблемы со скриншотами, переходом по ссылками, скачиванием торрентов - проблемы в блокировщике рекламы AdBlock. #хорошегоДня!


Статистика раздачи
Размер:  172 MB   |    Зарегистрирован:  6 лет 5 месяцев   |    .torrent скачан:  40 раз   |   
Раздают:  1  
   
Загрузка...
 
Автор Сообщение

Galfimbul

avatar Galfimbul


John Lurie - Music From 'Down By Law' & 'Variety'

Жанр: Score, Avant-Garde
Год выпуска диска: 1999
Производитель диска: US [Strange & Beautiful Music]
Аудио кодек: FLAC
Тип рипа: tracks+.cue
Битрейт аудио: lossless
Продолжительность: 35:13
Трэклист:

Music From 'Down By Law'
1 What Do You Know About Music, You're Not A Lawyer (2:00)
2 Stranger In The Day (1:59)
3 Promedade Du Maquereau (1:29)
4 The Invasion Of Poland (2:27)
5 Please Come To My House (1:04)
6 Are You Warm Enough? (2:42)
7 Swamp (0:43)
8 Swamp (Part Two) (0:43)
9 Are You Warm Enough Again? (0:28)
10 The King Of Thailand, The Queen Of Stairs (2:08)
11 A Hundred Miles From Harry (0:30)
12 Nicoletta Can't Cook (0:59)
13 Fork In Road (0:48)

John Lurie: alto sax, harmonica
Curtis Fowlkes: trombone
Marc Ribot: guitar, trumpet, banjo
Arto Lindsay: guitar
Tony Garnier: bass
Nana Vasconcelos: percussion
E.J. Rodriguez: percussion
Douglas B. Bowne: drums


Music From 'Variety'
14 Variety Theme (1:31)
15 Porno Booth (1:13)
16 Porno Booth II (0:53)
17 Car (5:08)
18 Million Dollar Walk (1:33)
19 Anders Leap In (1:00)
20 Garter Belt (2:15)
21 End Titles (2:40)

John Lurie: alto sax
Evan Lurie: piano
Anders Gaarmand: tenor & baritone sax
Paul McGovern: alto sax
Peter Zummo: trombone & trumpet
Tony Garnier: bass
Douglas B. Bowne: drums
 
Exact Audio Copy V0.99 prebeta 4 from 23. January 2008

EAC extraction logfile from 26. May 2008, 15:40

John Lurie / Down By Law & Variety

Used drive : TSSTcorpCDDVDW TS-L632H Adapter: 0 ID: 0

Read mode : SecureUtilize accurate stream : YesDefeat audio cache : YesMake use of C2 pointers : No

Read offset correction : 6Overread into Lead-In and Lead-Out : NoFill up missing offset samples with silence : YesDelete leading and trailing silent blocks : NoNull samples used in CRC calculations : YesUsed interface : Native Win32 interface for Win NT & 2000Gap handling : Appended to previous track

Used output format : User Defined EncoderSelected bitrate : 768 kBit/sQuality : HighAdd ID3 tag : NoCommand line compressor : C:\Program Files\Exact Audio Copy\FLAC\FLAC.EXEAdditional command line options : -8 -V -T "ARTIST=%a" -T "TITLE=%t" -T "ALBUM=%g" -T "DATE=%y" -T "TRACKNUMBER=%n" -T "GENRE=%m" -T "COMMENT=%e" %s -o %d

TOC of the extracted CD

Track | Start | Length | Start sector | End sector --------------------------------------------------------- 1 | 0:00.00 | 2:02.02 | 0 | 9151 2 | 2:02.02 | 2:01.43 | 9152 | 18269 3 | 4:03.45 | 1:29.35 | 18270 | 24979 4 | 5:33.05 | 2:29.12 | 24980 | 36166 5 | 8:02.17 | 1:07.58 | 36167 | 41249 6 | 9:10.00 | 2:46.15 | 41250 | 53714 7 | 11:56.15 | 0:46.50 | 53715 | 57214 8 | 12:42.65 | 0:47.50 | 57215 | 60789 9 | 13:30.40 | 0:30.10 | 60790 | 63049 10 | 14:00.50 | 2:14.00 | 63050 | 73099 11 | 16:14.50 | 0:32.67 | 73100 | 75566 12 | 16:47.42 | 1:00.35 | 75567 | 80101 13 | 17:48.02 | 0:57.53 | 80102 | 84429 14 | 18:45.55 | 1:32.17 | 84430 | 91346 15 | 20:17.72 | 1:15.10 | 91347 | 96981 16 | 21:33.07 | 0:55.25 | 96982 | 101131 17 | 22:28.32 | 5:06.73 | 101132 | 124154 18 | 27:35.30 | 1:35.22 | 124155 | 131301 19 | 29:10.52 | 1:02.08 | 131302 | 135959 20 | 30:12.60 | 2:17.50 | 135960 | 146284 21 | 32:30.35 | 2:42.40 | 146285 | 158474

Track 1

Filename D:\John Lurie - Down By Law & Variety [flac]\01 - What Do You Know About Music, You're Not a Lawyer.wav

Pre-gap length 0:00:02.00

Peak level 85.4 % Track quality 100.0 % Test CRC D6DDFC8A Copy CRC D6DDFC8A Track not present in AccurateRip database Copy OK

Track 2

Filename D:\John Lurie - Down By Law & Variety [flac]\02 - Strangers in the Day.wav

Pre-gap length 0:00:02.50

Peak level 91.0 % Track quality 100.0 % Test CRC A6A37F35 Copy CRC A6A37F35 Track not present in AccurateRip database Copy OK

Track 3

Filename D:\John Lurie - Down By Law & Variety [flac]\03 - Promenade du Maquereau.wav

Pre-gap length 0:00:02.28

Peak level 92.7 % Track quality 100.0 % Test CRC CE807425 Copy CRC CE807425 Track not present in AccurateRip database Copy OK

Track 4

Filename D:\John Lurie - Down By Law & Variety [flac]\04 - The Invasion of Poland.wav

Pre-gap length 0:00:02.50

Peak level 85.3 % Track quality 100.0 % Test CRC 1305440C Copy CRC 1305440C Track not present in AccurateRip database Copy OK

Track 5

Filename D:\John Lurie - Down By Law & Variety [flac]\05 - Please Come To My House.wav

Pre-gap length 0:00:01.15

Peak level 86.9 % Track quality 100.0 % Test CRC 4F15D0CD Copy CRC 4F15D0CD Track not present in AccurateRip database Copy OK

Track 6

Filename D:\John Lurie - Down By Law & Variety [flac]\06 - Are You Warm Enough .wav

Pre-gap length 0:00:02.33

Peak level 65.4 % Track quality 100.0 % Test CRC D450D85F Copy CRC D450D85F Track not present in AccurateRip database Copy OK

Track 7

Filename D:\John Lurie - Down By Law & Variety [flac]\07 - Swamp.wav

Pre-gap length 0:00:01.20

Peak level 86.9 % Track quality 100.0 % Test CRC 41579815 Copy CRC 41579815 Track not present in AccurateRip database Copy OK

Track 8

Filename D:\John Lurie - Down By Law & Variety [flac]\08 - Swamp (Part Two).wav

Peak level 83.5 % Track quality 100.0 % Test CRC 5113CB4E Copy CRC 5113CB4E Track not present in AccurateRip database Copy OK

Track 9

Filename D:\John Lurie - Down By Law & Variety [flac]\09 - Are You Warm Enough Again .wav

Peak level 64.8 % Track quality 100.0 % Test CRC 71D5CE89 Copy CRC 71D5CE89 Track not present in AccurateRip database Copy OK

Track 10

Filename D:\John Lurie - Down By Law & Variety [flac]\10 - The King of Thailand, the Queen of Stairs.wav

Peak level 46.5 % Track quality 100.0 % Test CRC DC178F98 Copy CRC DC178F98 Track not present in AccurateRip database Copy OK

Track 11

Filename D:\John Lurie - Down By Law & Variety [flac]\11 - A Hundred Miles From Harry.wav

Pre-gap length 0:00:00.01

Peak level 93.1 % Track quality 99.6 % Test CRC CC844046 Copy CRC CC844046 Track not present in AccurateRip database Copy OK

Track 12

Filename D:\John Lurie - Down By Law & Variety [flac]\12 - Nicoletta Can't Cook.wav

Peak level 31.3 % Track quality 100.0 % Test CRC 4513FE5F Copy CRC 4513FE5F Track not present in AccurateRip database Copy OK

Track 13

Filename D:\John Lurie - Down By Law & Variety [flac]\13 - Fork in the Road.wav

Pre-gap length 0:00:01.12

Peak level 88.6 % Track quality 100.0 % Test CRC 80405295 Copy CRC 80405295 Track not present in AccurateRip database Copy OK

Track 14

Filename D:\John Lurie - Down By Law & Variety [flac]\14 - Variety Theme.wav

Pre-gap length 0:00:06.63

Peak level 80.0 % Track quality 100.0 % Test CRC 4F47B7DA Copy CRC 4F47B7DA Track not present in AccurateRip database Copy OK

Track 15

Filename D:\John Lurie - Down By Law & Variety [flac]\15 - Porno Booth.wav

Peak level 27.1 % Track quality 100.0 % Test CRC B61ACBE1 Copy CRC B61ACBE1 Track not present in AccurateRip database Copy OK

Track 16

Filename D:\John Lurie - Down By Law & Variety [flac]\16 - Porno Booth II.wav

Pre-gap length 0:00:01.25

Peak level 69.8 % Track quality 100.0 % Test CRC 7FBD40CF Copy CRC 7FBD40CF Track not present in AccurateRip database Copy OK

Track 17

Filename D:\John Lurie - Down By Law & Variety [flac]\17 - Car.wav

Peak level 90.7 % Track quality 100.0 % Test CRC 702A9956 Copy CRC 702A9956 Track not present in AccurateRip database Copy OK

Track 18

Filename D:\John Lurie - Down By Law & Variety [flac]\18 - Million Dollar Walk.wav

Pre-gap length 0:00:02.00

Peak level 99.7 % Track quality 99.8 % Test CRC FD238FB6 Copy CRC FD238FB6 Track not present in AccurateRip database Copy OK

Track 19

Filename D:\John Lurie - Down By Law & Variety [flac]\19 - Anders Leap In.wav

Pre-gap length 0:00:01.05

Peak level 84.7 % Track quality 99.8 % Test CRC 5CAA41B0 Copy CRC 5CAA41B0 Track not present in AccurateRip database Copy OK

Track 20

Filename D:\John Lurie - Down By Law & Variety [flac]\20 - Garter Belt.wav

Peak level 69.9 % Track quality 100.0 % Test CRC 9EB8C53C Copy CRC 9EB8C53C Track not present in AccurateRip database Copy OK

Track 21

Filename D:\John Lurie - Down By Law & Variety [flac]\21 - End Titles.wav

Pre-gap length 0:00:01.08

Peak level 93.2 % Track quality 100.0 % Test CRC D186D870 Copy CRC D186D870 Track not present in AccurateRip database Copy OK

None of the tracks are present in the AccurateRip database

No errors occurred

End of status report


Трекер:  [ 08-Июл-2011 23:55 ]

  

Скачать .torrent

Размер .torrent файла 15 KB


Размер: 172 MB
Хэш (hash) релиза: d27c1787b8b8eff62e009a17dd8ce7192ec1ee3b

Еще никто не оставлял запись к записи скачать торрент John Lurie - Music From Down By Law & Variety - 1999, FLAC . Будь первым!

!Обратная связь