Скачать через торрент музыку Нечего терять Nothing to Lose бесплатно без регистрации torrent

Если у вас наблюдаются проблемы со скриншотами, переходом по ссылками, скачиванием торрентов - проблемы в блокировщике рекламы AdBlock. #хорошегоДня!


Статистика раздачи
Размер:  462 MB   |    Зарегистрирован:  6 лет 5 месяцев   |    .torrent скачан:  35 раз   |   
Раздают:  1  
   
Загрузка...
 
Автор Сообщение

Galfimbul

avatar Galfimbul


V/A - Nothing to Lose [Music from & Inspired by the Motion Picture]

Discogs: http://www.discogs.com/Various-Nothing-To-Lose-Music-From-And-Inspired-By-The-Motion-Picture/release/1448126

Жанр: Soundtrack, Rap, G-Funk, R&B
Год выпуска диска: 1997
Производитель диска: UK
Label: Tommy Boy Music <Catalog#: TBCD 1169>
Аудио кодек: WAVPack
Тип рипа: tracks+.cue
Битрейт аудио: Lossless
Продолжительность: 01:11:08

Трэклист:
01. Naughty by Nature - Nothin' to Lose [Naughty live] 3:29
02. Lil' Kim feat. Left Eye, Da Brat, Missy Elliott & Angie Martinez - Not Tonight [remix] 4:24
03. Coolio feat. 40 Thevz - C U when U Get there 4:38
04. Dat Nigga Daz [of Tha Dogg Pound] & Soopafly - Put the Monkey in it 4:05
05. Capone -N- Noreaga feat. Tragedy - Thug Paradise 3:30
06. Mac & A.K. feat. Mac Mall - Way 2 Saucy 4:23
07. Amari feat. Buckshot - Get Down with Me 4:01
08. Oran "Juice" Jones feat. Stu Large & Camp Lo - Poppin' that Fly... [DJ Clark Kent remix] 4:12
Remix - Rodolfo "DJ Clark Kent" Franklin
09. Quad City DJ's - Route 69 3:55
10. Master P feat. Tru & Mercedes - Hit 'Em Up 4:18
11. OutKast - Everlasting 3:42
12. 911 [US] feat. Queen Pen - In a Magazine 4:09
13. Eightball & M.J.G. - Not Tonight 4:29
14. Queen Latifah - It's Alright 3:41
15. Black Caesar - What's Going On 4:45
16. Stetsasonic - Go Stetsa I 4:10
17. Des'ree - Crazy Maze 4:35
 
Exact Audio Copy V0.99 prebeta 5 from 4. May 2009

EAC extraction logfile from 29. May 2010, 13:12

O.S.T. / Nothing to Lose [Music from & Inspired by the Motion Picture]

Used drive : PIONEER DVD-RW DVR-112D Adapter: 3 ID: 0

Read mode : SecureUtilize accurate stream : YesDefeat audio cache : YesMake use of C2 pointers : No

Read offset correction : 48Overread into Lead-In and Lead-Out : NoFill up missing offset samples with silence : YesDelete leading and trailing silent blocks : NoNull samples used in CRC calculations : YesUsed interface : Installed external ASPI interfaceGap handling : Appended to previous track

Used output format : Internal WAV RoutinesSample format : 44.100 Hz; 16 Bit; Stereo

TOC of the extracted CD

Track | Start | Length | Start sector | End sector --------------------------------------------------------- 1 | 0:00.00 | 3:42.47 | 0 | 16696 2 | 3:42.47 | 4:26.56 | 16697 | 36702 3 | 8:09.28 | 4:40.53 | 36703 | 57755 4 | 12:50.06 | 4:07.65 | 57756 | 76345 5 | 16:57.71 | 3:32.50 | 76346 | 92295 6 | 20:30.46 | 4:25.65 | 92296 | 112235 7 | 24:56.36 | 3:57.44 | 112236 | 130054 8 | 28:54.05 | 4:14.63 | 130055 | 149167 9 | 33:08.68 | 3:57.01 | 149168 | 166943 10 | 37:05.69 | 4:20.15 | 166944 | 186458 11 | 41:26.09 | 3:44.58 | 186459 | 203316 12 | 45:10.67 | 4:11.69 | 203317 | 222210 13 | 49:22.61 | 4:26.21 | 222211 | 242181 14 | 53:49.07 | 3:43.47 | 242182 | 258953 15 | 57:32.54 | 4:46.68 | 258954 | 280471 16 | 62:19.47 | 4:09.60 | 280472 | 299206 17 | 66:29.32 | 4:35.66 | 299207 | 319897

Track 1

Filename G:\Torrents Uploaded\Nothing to Lose [O.S.T.] [1997]\01 - Naughty by Nature - Nothin' to Lose [Naughty live].wav

Pre-gap length 0:00:02.00

Peak level 91.6 % Track quality 99.7 % Copy CRC F81FFDAC Track not present in AccurateRip database Copy OK

Track 2

Filename G:\Torrents Uploaded\Nothing to Lose [O.S.T.] [1997]\02 - Lil' Kim - Not Tonight [remix] [feat. Left Eye, Da Brat, Missy Elliot & Angie Martinez].wav

Peak level 91.6 % Track quality 99.4 % Copy CRC 703671E0 Track not present in AccurateRip database Copy OK

Track 3

Filename G:\Torrents Uploaded\Nothing to Lose [O.S.T.] [1997]\03 - Coolio - C U when U Get there [feat. The 40 Thevz].wav

Pre-gap length 0:00:00.01

Peak level 91.6 % Track quality 99.7 % Copy CRC 3B98BBDF Track not present in AccurateRip database Copy OK

Track 4

Filename G:\Torrents Uploaded\Nothing to Lose [O.S.T.] [1997]\04 - Dat Nigga Daz & Soopafly - Put the Monkey in it.wav

Pre-gap length 0:00:00.01

Peak level 91.6 % Track quality 99.5 % Copy CRC 3CDFFF45 Track not present in AccurateRip database Copy OK

Track 5

Filename G:\Torrents Uploaded\Nothing to Lose [O.S.T.] [1997]\05 - Capone-N-Noreaga - Thug Paradise [feat. Tragedy].wav

Pre-gap length 0:00:00.01

Peak level 91.6 % Track quality 99.7 % Copy CRC B5D319F2 Track not present in AccurateRip database Copy OK

Track 6

Filename G:\Torrents Uploaded\Nothing to Lose [O.S.T.] [1997]\06 - Mac & A.K.- Way 2 Saucy [feat. Mac Mall].wav

Pre-gap length 0:00:00.01

Peak level 86.4 % Track quality 99.5 % Copy CRC A11C95E0 Track not present in AccurateRip database Copy OK

Track 7

Filename G:\Torrents Uploaded\Nothing to Lose [O.S.T.] [1997]\07 - Amari - Get Down with Me [feat. Buckshot].wav

Pre-gap length 0:00:00.01

Peak level 88.5 % Track quality 99.5 % Copy CRC 444E2AC0 Track not present in AccurateRip database Copy OK

Track 8

Filename G:\Torrents Uploaded\Nothing to Lose [O.S.T.] [1997]\08 - Oran ''Juice'' Jones - Poppin' that Fly... [feat. Stu Large & Camp Lo] [DJ Clark Kent remix].wav

Pre-gap length 0:00:00.01

Peak level 91.6 % Track quality 99.6 % Copy CRC 3954B8D1 Track not present in AccurateRip database Copy OK

Track 9

Filename G:\Torrents Uploaded\Nothing to Lose [O.S.T.] [1997]\09 - Quad City DJ's - Route 69.wav

Pre-gap length 0:00:00.01

Peak level 91.5 % Track quality 99.6 % Copy CRC 4E82934D Track not present in AccurateRip database Copy OK

Track 10

Filename G:\Torrents Uploaded\Nothing to Lose [O.S.T.] [1997]\10 - Master P - Hit 'Em Up [feat. Tru & Mercedez].wav

Pre-gap length 0:00:00.01

Peak level 91.6 % Track quality 99.7 % Copy CRC 18217344 Track not present in AccurateRip database Copy OK

Track 11

Filename G:\Torrents Uploaded\Nothing to Lose [O.S.T.] [1997]\11 - OutKast - Everlasting.wav

Pre-gap length 0:00:00.01

Peak level 91.6 % Track quality 99.6 % Copy CRC 9B12D4BA Track not present in AccurateRip database Copy OK

Track 12

Filename G:\Torrents Uploaded\Nothing to Lose [O.S.T.] [1997]\12 - 911 - In a Magazine [feat. Queen Pen].wav

Pre-gap length 0:00:00.01

Peak level 92.6 % Track quality 99.6 % Copy CRC 81FD221C Track not present in AccurateRip database Copy OK

Track 13

Filename G:\Torrents Uploaded\Nothing to Lose [O.S.T.] [1997]\13 - Eightball & MJG - Not Tonight.wav

Pre-gap length 0:00:00.01

Peak level 86.4 % Track quality 99.7 % Copy CRC B08D0388 Track not present in AccurateRip database Copy OK

Track 14

Filename G:\Torrents Uploaded\Nothing to Lose [O.S.T.] [1997]\14 - Queen Latifah - It's Alright.wav

Pre-gap length 0:00:00.01

Peak level 91.6 % Track quality 99.6 % Copy CRC 803ECB97 Track not present in AccurateRip database Copy OK

Track 15

Filename G:\Torrents Uploaded\Nothing to Lose [O.S.T.] [1997]\15 - Black Caesar - What's Going On.wav

Pre-gap length 0:00:00.02

Peak level 91.6 % Track quality 99.3 % Copy CRC 38376A6E Track not present in AccurateRip database Copy OK

Track 16

Filename G:\Torrents Uploaded\Nothing to Lose [O.S.T.] [1997]\16 - Stetsasonic - Go Stetsa I.wav

Pre-gap length 0:00:00.01

Peak level 91.6 % Track quality 99.4 % Copy CRC 95EEFA7D Track not present in AccurateRip database Copy OK

Track 17

Filename G:\Torrents Uploaded\Nothing to Lose [O.S.T.] [1997]\17 - Des'Ree - Crazy Maze.wav

Pre-gap length 0:00:00.01

Peak level 91.6 % Track quality 99.2 % Copy CRC 9F92DAAA Track not present in AccurateRip database Copy OK

None of the tracks are present in the AccurateRip database

No errors occurred

End of status report
 
REM GENRE Soundtrack, Rap, R&BREM DATE 1997REM DISCID F710A911REM COMMENT "ExactAudioCopy v0.99pb5"PERFORMER "O.S.T."TITLE "Nothing to Lose [Music from & Inspired by the Motion Picture]"FILE "01 - Naughty by Nature - Nothin' to Lose [Naughty live].wv" WAVE TRACK 01 AUDIO TITLE "Naughty by Nature - Nothin' to Lose [Naughty live]" PERFORMER "O.S.T." INDEX 01 00:00:00FILE "02 - Lil' Kim - Not Tonight [remix] [feat. Left Eye, Da Brat, Missy Elliot & Angie Martinez].wv" WAVE TRACK 02 AUDIO TITLE "Lil' Kim - Not Tonight [remix] [feat. Left Eye, Da Brat, Missy Elliot & Angie..." PERFORMER "O.S.T." INDEX 01 00:00:00FILE "03 - Coolio - C U when U Get there [feat. The 40 Thevz].wv" WAVE TRACK 03 AUDIO TITLE "Coolio - C U when U Get there [feat. The 40 Thevz]" PERFORMER "O.S.T." INDEX 01 00:00:00FILE "04 - Dat Nigga Daz & Soopafly - Put the Monkey in it.wv" WAVE TRACK 04 AUDIO TITLE "Dat Nigga Daz & Soopafly - Put the Monkey in it" PERFORMER "O.S.T." INDEX 01 00:00:00FILE "05 - Capone-N-Noreaga - Thug Paradise [feat. Tragedy].wv" WAVE TRACK 05 AUDIO TITLE "Capone-N-Noreaga - Thug Paradise [feat. Tragedy]" PERFORMER "O.S.T." INDEX 01 00:00:00FILE "06 - Mac & A.K. - Way 2 Saucy [feat. Mac Mall].wv" WAVE TRACK 06 AUDIO TITLE "Mac & A.K. - Way 2 Saucy [feat. Mac Mall]" PERFORMER "O.S.T." INDEX 01 00:00:00FILE "07 - Amari - Get Down with Me [feat. Buckshot].wv" WAVE TRACK 07 AUDIO TITLE "Amari - Get Down with Me [feat. Buckshot]" PERFORMER "O.S.T." INDEX 01 00:00:00FILE "08 - Oran ''Juice'' Jones - Poppin' that Fly... [feat. Stu Large & Camp Lo] [DJ Clark Kent remix].wv" WAVE TRACK 08 AUDIO TITLE "Oran ''Juice'' Jones - Poppin' that Fly... [feat. Stu Large & Camp Lo] [DJ Cl..." PERFORMER "O.S.T." INDEX 01 00:00:00FILE "09 - Quad City DJ's - Route 69.wv" WAVE TRACK 09 AUDIO TITLE "Quad City DJ's - Route 69" PERFORMER "O.S.T." INDEX 01 00:00:00FILE "10 - Master P - Hit 'Em Up [feat. Tru & Mercedez].wv" WAVE TRACK 10 AUDIO TITLE "Master P - Hit 'Em Up [feat. Tru & Mercedez]" PERFORMER "O.S.T." INDEX 01 00:00:00FILE "11 - OutKast - Everlasting.wv" WAVE TRACK 11 AUDIO TITLE "OutKast - Everlasting" PERFORMER "O.S.T." INDEX 01 00:00:00FILE "12 - 911 - In a Magazine [feat. Queen Pen].wv" WAVE TRACK 12 AUDIO TITLE "911 - In a Magazine [feat. Queen Pen]" PERFORMER "O.S.T." INDEX 01 00:00:00FILE "13 - Eightball & MJG - Not Tonight.wv" WAVE TRACK 13 AUDIO TITLE "Eightball & MJG - Not Tonight" PERFORMER "O.S.T." INDEX 01 00:00:00FILE "14 - Queen Latifah - It's Alright.wv" WAVE TRACK 14 AUDIO TITLE "Queen Latifah - It's Alright" PERFORMER "O.S.T." INDEX 01 00:00:00FILE "15 - Black Caesar - What's Going On.wv" WAVE TRACK 15 AUDIO TITLE "Black Caesar - What's Going On" PERFORMER "O.S.T." INDEX 01 00:00:00FILE "16 - Stetsasonic - Go Stetsa I.wv" WAVE TRACK 16 AUDIO TITLE "Stetsasonic - Go Stetsa I" PERFORMER "O.S.T." INDEX 01 00:00:00FILE "17 - Des'Ree - Crazy Maze.wv" WAVE TRACK 17 AUDIO TITLE "Des'Ree - Crazy Maze" PERFORMER "O.S.T." INDEX 01 00:00:00
AUDIOCHECKER v2.0 beta (build 457) - by Dester - opdester@freemail.hu
~~~~~~~~~~~~~~~~~~~~~~~~~~~~~~~~~~
-=== DO NOT EDIT THIS FILE! ===-

Path: ...\Nothing to Lose [O.S.T.] [1997]

01 -=- 01 - Naughty by Nature - Nothin' to Lose [Naughty live].wav -=- CDDA (100%)
02 -=- 02 - Lil' Kim - Not Tonight [remix] [feat. Left Eye, Da Brat, Missy Elliot & Angie Martinez].wav -=- CDDA (100%)
03 -=- 03 - Coolio - C U when U Get there [feat. The 40 Thevz].wav -=- CDDA (100%)
04 -=- 04 - Dat Nigga Daz & Soopafly - Put the Monkey in it.wav -=- CDDA (99%)
05 -=- 05 - Capone-N-Noreaga - Thug Paradise [feat. Tragedy].wav -=- CDDA (100%)
06 -=- 06 - Mac & A.K.- Way 2 Saucy [feat. Mac Mall].wav -=- CDDA (100%)
07 -=- 07 - Amari - Get Down with Me [feat. Buckshot].wav -=- CDDA (100%)
08 -=- 08 - Oran ''Juice'' Jones - Poppin' that Fly... [feat. Stu Large & Camp Lo] [DJ Clark Kent remix].wav -=- CDDA (100%)
09 -=- 09 - Quad City DJ's - Route 69.wav -=- CDDA (100%)
10 -=- 10 - Master P - Hit 'Em Up [feat. Tru & Mercedez].wav -=- CDDA (100%)
11 -=- 11 - OutKast - Everlasting.wav -=- CDDA (100%)
12 -=- 12 - 911 - In a Magazine [feat. Queen Pen].wav -=- CDDA (100%)
13 -=- 13 - Eightball & MJG - Not Tonight.wav -=- CDDA (100%)
14 -=- 14 - Queen Latifah - It's Alright.wav -=- CDDA (100%)
15 -=- 15 - Black Caesar - What's Going On.wav -=- CDDA (99%)
16 -=- 16 - Stetsasonic - Go Stetsa I.wav -=- CDDA (100%)
17 -=- 17 - Des' Ree - Crazy Maze.wav -=- CDDA (100%)

Summary 99,88% CDDA

216457444


Трекер:  [ 08-Июл-2011 22:36 ]

  

Скачать .torrent

Размер .torrent файла 20 KB


Размер: 462 MB
Хэш (hash) релиза: defd1bc3817a17887dd0342d73e7310d7161d3dc

Торренты, похожие на Нечего терять Nothing to Lose скачать торрент

Форум Название Автор Размер S L Добавлен
Саундтреки к фильмам и мультфильмам (mp3) ·· (Soundtrack, Rap, G-Funk, R&B) Нечего терять / Nothing to Lose (V/A) - 1997, MP3 (tracks), 320 kbps Galfimbul 171442719164 MB 0 0 1292266250

21:50

13-Дек-10

Еще никто не оставлял запись к записи скачать торрент Нечего терять Nothing to Lose . Будь первым!

!Обратная связь