Скачать через торрент музыку Chariots Of Fire Огненные колесницы бесплатно без регистрации torrent

Если у вас наблюдаются проблемы со скриншотами, переходом по ссылками, скачиванием торрентов - проблемы в блокировщике рекламы AdBlock. #хорошегоДня!


Статистика раздачи
Размер:  207 MB   |    Зарегистрирован:  6 лет 5 месяцев   |    .torrent скачан:  49 раз   |   
Раздают:  1  
   
Загрузка...
 
Автор Сообщение

Galfimbul

avatar Galfimbul


Chariots Of Fire / Огненные колесницы
[25th Anniversary Edition Digitally Remastered by Vangelis]


Жанр: Score
Композитор: Vangelis
Страна-производитель диска: E.U.
Год издания диска: 2006
Год выпуска фильма: 1981
Издатель (лейбл): Universal
Номер по каталогу: 984 139-8
Страна: UK

Примечание:
Данный релиз "Chariots of Fire" был приурочен к 25-летнему юбилею выхода оригинального саундтрека 1981 года.
Особенность данного издания состоит в том, что цифровой мастеринг был выполнен самим Вангелисом.

Аудио кодек: APE (*.ape)
Тип рипа: image+.cue
Битрейт аудио: lossless
Продолжительность: 41:58
Наличие сканов в содержимом раздачи: да

Треклист:
01 Titles
02 Five Circles
03 Abraham's Theme
04 Eric's Theme
05 100 Metres
06 Jerusalem
07 Chariots of Fire
 
Exact Audio Copy V0.99 prebeta 5 from 4. May 2009

Отчёт EAC об извлечении, выполненном 21. сентября 2010, 21:32

Vangelis / Chariots of fire - 25th Anniversary Edition - Digitally Remastered by Vangelis

Дисковод: Optiarc DVD RW AD-7203S Adapter: 5 ID: 0

Режим чтения : ДостоверностьИспользование точного потока : ДаОтключение кэша аудио : ДаИспользование указателей C2 : Нет

Коррекция смещения при чтении : 48Способность читать области Lead-in и Lead-out : НетЗаполнение пропущенных сэмплов тишиной : ДаУдаление блоков с тишиной в начале и конце : НетПри вычислениях CRC использовались нулевые сэмплы : ДаИнтерфейс : Встроенный Win32-интерфейс для Win NT/2000

Выходной формат : Внутренние WAV-операцииФормат сэмплов : 44.100 Гц; 16 бит; стерео

TOC извлечённого CD

Трек | Старт | Длительность | Начальный сектор | Конечный сектор --------------------------------------------------------------------- 1 | 0:00.00 | 3:33.04 | 0 | 15978 2 | 3:33.04 | 5:20.32 | 15979 | 40010 3 | 8:53.36 | 3:14.00 | 40011 | 54560 4 | 12:07.36 | 4:19.29 | 54561 | 74014 5 | 16:26.65 | 2:02.27 | 74015 | 83191 6 | 18:29.17 | 2:47.43 | 83192 | 95759 7 | 21:16.60 | 20:41.54 | 95760 | 188888

Характеристики диапазона извлечения и сообщения об ошибках

Выбранный диапазон

Имя файла V:\utorrent upload\Vangelis - (2006) Chariots of Fire (25th Anniversary Edition, digitally remastered by Vangelis, APE)\Vangelis - (2006) Chariots of Fire (25th Anniversary Edition, remastered).wav

Пиковый уровень 95.0 % Качество диапазона 100.0 % CRC теста 489320BC CRC копии 489320BC Копирование... OK

Ошибок не произошло

AccurateRip: сводка

Трек 1 точное извлечение (доверие 47) [8C31D642]Трек 2 точное извлечение (доверие 45) [F7E6F5C4]Трек 3 точное извлечение (доверие 45) [DC8FB2EF]Трек 4 точное извлечение (доверие 46) [192A626E]Трек 5 точное извлечение (доверие 45) [34E82CF7]Трек 6 точное извлечение (доверие 46) [FBB3B435]Трек 7 точное извлечение (доверие 44) [215C3137]

Все треки извлечены точно

Конец отчёта
 
REM GENRE SoundtrackREM DATE 2006REM DISCID 5809D607REM COMMENT "ExactAudioCopy v0.99pb5"PERFORMER "Vangelis"TITLE "Chariots of fire - 25th Anniversary Edition - Digitally Remastered by Vangelis"FILE "Vangelis - (2006) Chariots of Fire (25th Anniversary Edition, remastered).ape" WAVE TRACK 01 AUDIO TITLE "Titles" PERFORMER "Vangelis" INDEX 01 00:00:00 TRACK 02 AUDIO TITLE "Five Circles" PERFORMER "Vangelis" INDEX 01 03:33:04 TRACK 03 AUDIO TITLE "Abraham's Theme" PERFORMER "Vangelis" INDEX 01 08:53:36 TRACK 04 AUDIO TITLE "Eric's Theme" PERFORMER "Vangelis" INDEX 01 12:07:36 TRACK 05 AUDIO TITLE "100 Metres" PERFORMER "Vangelis" INDEX 01 16:26:65 TRACK 06 AUDIO TITLE "Jerusalem" PERFORMER "Vangelis" INDEX 01 18:29:17 TRACK 07 AUDIO TITLE "Chariots of Fire" PERFORMER "Vangelis" INDEX 01 21:16:60
Спасибо всем тем, кто сказал "спасибо" мне и поддержал раздачу.

Трекер:  [ 08-Июл-2011 22:43 ]

  

Скачать .torrent

Размер .torrent файла 17 KB


Размер: 207 MB
Хэш (hash) релиза: ff9bc4fd7b3f47005ee65934d21a7252e4619d39

Еще никто не оставлял запись к записи скачать торрент Chariots Of Fire Огненные колесницы . Будь первым!

!Обратная связь