Скачать через торрент музыку Поезд на Юму 3:10 to Yuma бесплатно без регистрации torrent

Если у вас наблюдаются проблемы со скриншотами, переходом по ссылками, скачиванием торрентов - проблемы в блокировщике рекламы AdBlock. #хорошегоДня!


Статистика раздачи
Размер:  222 MB   |    Зарегистрирован:  6 лет 5 месяцев   |    .torrent скачан:  42 раза   |   
Раздают:  1  
   
Загрузка...
 
Автор Сообщение

Galfimbul

avatar Galfimbul


Поезд на Юму / 3:10 to Yuma

Жанр: Score || Композитор: Marco Beltrami || Год выпуска: 2007 || Страна: USA || Аудио кодек: FLAC || Тип рипа: tracks+.cue || Битрейт аудио: lossless
Продолжительность: 00:46:23 || Источник: what.cd

01 - Main Title (01:07)
02 - Ben Takes the Stage / Dan's Burden (05:46)
03 - Man of His Word (00:59)
04 - Bisbygliando (01:23)
05 - Barn Burn (02:03)
06 - Chinatown (01:40)
07 - Indian Grounds (02:50)
08 - Chinese Democracy (02:52)
09 - One for the Road / Storm Clouds (04:12)
10 - Trial by Fire (01:58)
11 - Flight of the Princess (01:59)
12 - Ben There Done That (01:36)
13 - Gang Arrives (01:53)
14 - Ben Arrested (04:00)
15 - It's Time (01:02)
16 - Hotel (00:41)
17 - One Man Left (03:07)
18 - William Escapes (01:45)
19 - Bible Study (02:35)
20 - Who Let the Cows Out? (01:32)
21 - The 3:10 to Yuma (02:07)
 
Exact Audio Copy V0.99 prebeta 5 from 4. May 2009

EAC extraction logfile from 18. August 2009, 23:15

Marco Beltrami / 3:10 to Yuma

Used drive : Optiarc BD ROM BC-5500S Adapter: 1 ID: 0

Read mode : SecureUtilize accurate stream : YesDefeat audio cache : YesMake use of C2 pointers : No

Read offset correction : 48Overread into Lead-In and Lead-Out : NoFill up missing offset samples with silence : YesDelete leading and trailing silent blocks : NoNull samples used in CRC calculations : NoUsed interface : Installed external ASPI interfaceGap handling : Appended to previous track

Used output format : User Defined EncoderSelected bitrate : 768 kBit/sQuality : HighAdd ID3 tag : NoCommand line compressor : C:\Program Files\Exact Audio Copy\FLAC\FLAC.EXEAdditional command line options : -6 -V -T "ARTIST=%a" -T "TITLE=%t" -T "ALBUM=%g" -T "DATE=%y" -T "TRACKNUMBER=%n" -T "GENRE=%m" -T "COMMENT=%e" %s -o %d

TOC of the extracted CD

Track | Start | Length | Start sector | End sector --------------------------------------------------------- 1 | 0:00.00 | 1:07.02 | 0 | 5026 2 | 1:07.02 | 5:45.47 | 5027 | 30948 3 | 6:52.49 | 0:59.12 | 30949 | 35385 4 | 7:51.61 | 1:23.04 | 35386 | 41614 5 | 9:14.65 | 2:02.39 | 41615 | 50803 6 | 11:17.29 | 1:39.47 | 50804 | 58275 7 | 12:57.01 | 2:50.18 | 58276 | 71043 8 | 15:47.19 | 2:51.58 | 71044 | 83926 9 | 18:39.02 | 4:11.66 | 83927 | 102817 10 | 22:50.68 | 1:58.33 | 102818 | 111700 11 | 24:49.26 | 1:59.04 | 111701 | 120629 12 | 26:48.30 | 1:36.10 | 120630 | 127839 13 | 28:24.40 | 1:52.57 | 127840 | 136296 14 | 30:17.22 | 4:00.31 | 136297 | 154327 15 | 34:17.53 | 1:02.29 | 154328 | 159006 16 | 35:20.07 | 0:41.12 | 159007 | 162093 17 | 36:01.19 | 3:07.30 | 162094 | 176148 18 | 39:08.49 | 1:45.16 | 176149 | 184039 19 | 40:53.65 | 2:35.35 | 184040 | 195699 20 | 43:29.25 | 1:32.06 | 195700 | 202605 21 | 45:01.31 | 2:07.21 | 202606 | 212151

Track 1

Filename 3_10 To Yuma\01 - Main Title.wav

Pre-gap length 0:00:02.00

Peak level 98.4 % Track quality 100.0 % Test CRC C11BF5F8 Copy CRC C11BF5F8 Accurately ripped (confidence 5) [3CCCBFC8] Copy OK

Track 2

Filename 3_10 To Yuma\02 - Ben Takes the Stage , Dan's Burden.wav

Pre-gap length 0:00:02.47

Peak level 98.4 % Track quality 100.0 % Test CRC 0D5AA0B9 Copy CRC 0D5AA0B9 Accurately ripped (confidence 5) [717F99BE] Copy OK

Track 3

Filename 3_10 To Yuma\03 - Man of His Word.wav

Pre-gap length 0:00:00.60

Peak level 49.2 % Track quality 100.0 % Test CRC 887B5F5A Copy CRC 887B5F5A Accurately ripped (confidence 5) [DDD9A14E] Copy OK

Track 4

Filename 3_10 To Yuma\04 - Bisbygliando.wav

Pre-gap length 0:00:02.45

Peak level 98.3 % Track quality 100.0 % Test CRC FAC63875 Copy CRC FAC63875 Accurately ripped (confidence 5) [33107AF6] Copy OK

Track 5

Filename 3_10 To Yuma\05 - Barn Burn.wav

Pre-gap length 0:00:01.18

Peak level 98.0 % Track quality 99.9 % Test CRC 4E6CD66F Copy CRC 4E6CD66F Accurately ripped (confidence 5) [7192F2F5] Copy OK

Track 6

Filename 3_10 To Yuma\06 - Chinatown.wav

Pre-gap length 0:00:03.15

Peak level 98.8 % Track quality 99.8 % Test CRC 9360F186 Copy CRC 9360F186 Accurately ripped (confidence 5) [513AA313] Copy OK

Track 7

Filename 3_10 To Yuma\07 - Indian Grounds.wav

Pre-gap length 0:00:02.58

Peak level 98.6 % Track quality 100.0 % Test CRC ADAA7D1C Copy CRC ADAA7D1C Accurately ripped (confidence 5) [55743674] Copy OK

Track 8

Filename 3_10 To Yuma\08 - Chinese Democracy.wav

Pre-gap length 0:00:02.58

Peak level 98.4 % Track quality 100.0 % Test CRC A13D9CC4 Copy CRC A13D9CC4 Accurately ripped (confidence 5) [3F85CC88] Copy OK

Track 9

Filename 3_10 To Yuma\09 - One for the Road , Storm Clouds.wav

Pre-gap length 0:00:03.25

Peak level 78.4 % Track quality 100.0 % Test CRC 1339B2BC Copy CRC 1339B2BC Accurately ripped (confidence 5) [1FA9245C] Copy OK

Track 10

Filename 3_10 To Yuma\10 - Trial by Fire.wav

Pre-gap length 0:00:02.48

Peak level 98.3 % Track quality 100.0 % Test CRC AC90689B Copy CRC AC90689B Accurately ripped (confidence 5) [4CE75549] Copy OK

Track 11

Filename 3_10 To Yuma\11 - Flight of the Princess.wav

Pre-gap length 0:00:01.69

Peak level 99.2 % Track quality 100.0 % Test CRC 380B778B Copy CRC 380B778B Accurately ripped (confidence 5) [1F015EB0] Copy OK

Track 12

Filename 3_10 To Yuma\12 - Ben There Done That.wav

Pre-gap length 0:00:01.18

Peak level 60.3 % Track quality 100.0 % Test CRC 8CE49943 Copy CRC 8CE49943 Accurately ripped (confidence 5) [666AD2A0] Copy OK

Track 13

Filename 3_10 To Yuma\13 - Gang Arrives.wav

Pre-gap length 0:00:02.16

Peak level 98.4 % Track quality 100.0 % Test CRC 2DC21BA9 Copy CRC 2DC21BA9 Accurately ripped (confidence 5) [3475AE03] Copy OK

Track 14

Filename 3_10 To Yuma\14 - Ben Arrested.wav

Pre-gap length 0:00:02.48

Peak level 97.9 % Track quality 99.9 % Test CRC C4CBEF8A Copy CRC C4CBEF8A Accurately ripped (confidence 5) [CCA951D7] Copy OK

Track 15

Filename 3_10 To Yuma\15 - It's Time.wav

Pre-gap length 0:00:02.26

Peak level 97.9 % Track quality 100.0 % Test CRC 5ADE2AD8 Copy CRC 5ADE2AD8 Accurately ripped (confidence 5) [360DD2FB] Copy OK

Track 16

Filename 3_10 To Yuma\16 - Hotel.wav

Pre-gap length 0:00:02.27

Peak level 51.4 % Track quality 99.7 % Test CRC 0B9A63B1 Copy CRC 0B9A63B1 Accurately ripped (confidence 5) [73B982BE] Copy OK

Track 17

Filename 3_10 To Yuma\17 - One Man Left.wav

Pre-gap length 0:00:01.60

Peak level 97.8 % Track quality 100.0 % Test CRC 46495FED Copy CRC 46495FED Accurately ripped (confidence 5) [83E462CC] Copy OK

Track 18

Filename 3_10 To Yuma\18 - William Escapes.wav

Pre-gap length 0:00:03.15

Peak level 59.0 % Track quality 100.0 % Test CRC 4AD85039 Copy CRC 4AD85039 Accurately ripped (confidence 5) [06161A79] Copy OK

Track 19

Filename 3_10 To Yuma\19 - Bible Study.wav

Pre-gap length 0:00:03.15

Peak level 98.0 % Track quality 100.0 % Test CRC 2FAC765B Copy CRC 2FAC765B Accurately ripped (confidence 5) [6ACA32BC] Copy OK

Track 20

Filename 3_10 To Yuma\20 - Who Let the Cows Out .wav

Pre-gap length 0:00:01.61

Peak level 98.0 % Track quality 100.0 % Test CRC 74DCCBB1 Copy CRC 74DCCBB1 Accurately ripped (confidence 5) [F526C37D] Copy OK

Track 21

Filename 3_10 To Yuma\21 - The 3-10 to Yuma.wav

Pre-gap length 0:00:02.27

Peak level 98.7 % Track quality 100.0 % Test CRC F4B00815 Copy CRC F4B00815 Accurately ripped (confidence 5) [92826DF6] Copy OK

All tracks accurately ripped

No errors occurred

End of status report
 
REM GENRE SoundtrackREM DATE 2007REM DISCID 190B0C15REM COMMENT "ExactAudioCopy v0.99pb5"PERFORMER "Marco Beltrami"TITLE "3:10 to Yuma"FILE "01 - Main Title.wav" WAVE TRACK 01 AUDIO TITLE "Main Title" PERFORMER "Marco Beltrami" INDEX 01 00:00:00 TRACK 02 AUDIO TITLE "Ben Takes the Stage / Dan's Burden" PERFORMER "Marco Beltrami" INDEX 00 01:04:30FILE "02 - Ben Takes the Stage , Dan's Burden.wav" WAVE INDEX 01 00:00:00 TRACK 03 AUDIO TITLE "Man of His Word" PERFORMER "Marco Beltrami" INDEX 00 05:44:62FILE "03 - Man of His Word.wav" WAVE INDEX 01 00:00:00 TRACK 04 AUDIO TITLE "Bisbygliando" PERFORMER "Marco Beltrami" INDEX 00 00:56:42FILE "04 - Bisbygliando.wav" WAVE INDEX 01 00:00:00 TRACK 05 AUDIO TITLE "Barn Burn" PERFORMER "Marco Beltrami" INDEX 00 01:21:61FILE "05 - Barn Burn.wav" WAVE INDEX 01 00:00:00 TRACK 06 AUDIO TITLE "Chinatown" PERFORMER "Marco Beltrami" INDEX 00 01:59:24FILE "06 - Chinatown.wav" WAVE INDEX 01 00:00:00 TRACK 07 AUDIO TITLE "Indian Grounds" PERFORMER "Marco Beltrami" INDEX 00 01:36:64FILE "07 - Indian Grounds.wav" WAVE INDEX 01 00:00:00 TRACK 08 AUDIO TITLE "Chinese Democracy" PERFORMER "Marco Beltrami" INDEX 00 02:47:35FILE "08 - Chinese Democracy.wav" WAVE INDEX 01 00:00:00 TRACK 09 AUDIO TITLE "One for the Road / Storm Clouds" PERFORMER "Marco Beltrami" INDEX 00 02:48:33FILE "09 - One for the Road , Storm Clouds.wav" WAVE INDEX 01 00:00:00 TRACK 10 AUDIO TITLE "Trial by Fire" PERFORMER "Marco Beltrami" INDEX 00 04:09:18FILE "10 - Trial by Fire.wav" WAVE INDEX 01 00:00:00 TRACK 11 AUDIO TITLE "Flight of the Princess" PERFORMER "Marco Beltrami" INDEX 00 01:56:39FILE "11 - Flight of the Princess.wav" WAVE INDEX 01 00:00:00 TRACK 12 AUDIO TITLE "Ben There Done That" PERFORMER "Marco Beltrami" INDEX 00 01:57:61FILE "12 - Ben There Done That.wav" WAVE INDEX 01 00:00:00 TRACK 13 AUDIO TITLE "Gang Arrives" PERFORMER "Marco Beltrami" INDEX 00 01:33:69FILE "13 - Gang Arrives.wav" WAVE INDEX 01 00:00:00 TRACK 14 AUDIO TITLE "Ben Arrested" PERFORMER "Marco Beltrami" INDEX 00 01:50:09FILE "14 - Ben Arrested.wav" WAVE INDEX 01 00:00:00 TRACK 15 AUDIO TITLE "It's Time" PERFORMER "Marco Beltrami" INDEX 00 03:58:05FILE "15 - It's Time.wav" WAVE INDEX 01 00:00:00 TRACK 16 AUDIO TITLE "Hotel" PERFORMER "Marco Beltrami" INDEX 00 01:00:02FILE "16 - Hotel.wav" WAVE INDEX 01 00:00:00 TRACK 17 AUDIO TITLE "One Man Left" PERFORMER "Marco Beltrami" INDEX 00 00:39:27FILE "17 - One Man Left.wav" WAVE INDEX 01 00:00:00 TRACK 18 AUDIO TITLE "William Escapes" PERFORMER "Marco Beltrami" INDEX 00 03:04:15FILE "18 - William Escapes.wav" WAVE INDEX 01 00:00:00 TRACK 19 AUDIO TITLE "Bible Study" PERFORMER "Marco Beltrami" INDEX 00 01:42:01FILE "19 - Bible Study.wav" WAVE INDEX 01 00:00:00 TRACK 20 AUDIO TITLE "Who Let the Cows Out?" PERFORMER "Marco Beltrami" INDEX 00 02:33:49FILE "20 - Who Let the Cows Out .wav" WAVE INDEX 01 00:00:00 TRACK 21 AUDIO TITLE "The 3:10 to Yuma" PERFORMER "Marco Beltrami" INDEX 00 01:29:54FILE "21 - The 3-10 to Yuma.wav" WAVE INDEX 01 00:00:00



Трекер:  [ 08-Июл-2011 22:43 ]

  

Скачать .torrent

Размер .torrent файла 19 KB


Размер: 222 MB
Хэш (hash) релиза: a51c5696f4c64851530792c68eeeda496af5c84f

Торренты, похожие на Поезд на Юму 3:10 to Yuma скачать торрент

Форум Название Автор Размер S L Добавлен
Саундтреки ·· (Score) Поезд на Юму / 3:10 to Yuma (by Marco Beltrami) - 2007, MP3, 320 kbps Galfimbul 113395546108 MB 0 0 1358000160

17:16

12-Янв-13

Саундтреки к фильмам и мультфильмам (mp3) ·· (Soundtrack) 3:10 to Yuma / Поезд на Юму- 2007, MP3, 320 kbps Galfimbul 113413592108 MB 0 0 1292266175

21:49

13-Дек-10

Еще никто не оставлял запись к записи скачать торрент Поезд на Юму 3:10 to Yuma . Будь первым!

!Обратная связь