Скачать через торрент музыку Howard Shore - Собрание сочинений бесплатно без регистрации torrent

Если у вас наблюдаются проблемы со скриншотами, переходом по ссылками, скачиванием торрентов - проблемы в блокировщике рекламы AdBlock. #хорошегоДня!


Статистика раздачи
Размер:  3.94 GB   |    Зарегистрирован:  6 лет 2 месяца   |    .torrent скачан:  54 раза   |   
Раздают:  1  
   
Загрузка...
 
Автор Сообщение

Galfimbul

avatar Galfimbul


Howard Shore - Собрание сочинений

Жанр: Score / Soundtrack | Годы выпуска дисков: 1991-2007 | Аудио кодек: APE, FLAC | Тип рипа: image+.cue
| Битрейт аудио: lossless
01. Main Title
02. The Asylum
03. Clarice
04. Return To The Asylum
05. The Abduction
06. Quid Pro Qou
07. Lecter In MemphIs
08. Lambs Screaming
09. Lecter Escapes
10. Belvedere, Ohio
11. The Moth
12. The Celler
13. Finale
 
EAC extraction logfile from 1. October 2005, 20:41 for CDHoward Shore / The Silence of The Lambs

Used drive : HL-DT-STDVD-ROM GDR8161B Adapter: 1 ID: 1Read mode : Secure with NO C2, accurate stream, disable cacheRead offset correction : 102Overread into Lead-In and Lead-Out : No

Used output format : Internal WAV Routines 44.100 Hz; 16 Bit; Stereo

Other options : Fill up missing offset samples with silence : Yes Delete leading and trailing silent blocks : No Installed external ASPI interface

Range status and errorsSelected range Filename D:\CD-RIPS\Howard Shore - The Silence of The Lambs.wav

Peak level 99.9 % Range quality 99.9 % CRC 92D55E6A Copy OK

No errors occured

End of status report
Великолепный саундтрек к легендарной картине - последняя композиция так вообще достойна того, чтобы называться классикой - величественная, грандиозная, пробирающая до дрожи, заставляющая цепенеть - очень сильная музыка.
На диске не была представлена песня "Goodbye Horses" - Q Lazzarus, из сцены, когда Буффало Билл вытанцовывал, примеривая свои "обновки" (наверное, потому что это все-таки Score, а не Soundtrack:). Она находится здесь: http://unionpeer.org/forum/viewtopic.php?t=327405
Песенка эта, кстати, очень хороша. Песня, которая играла у Кэтрин в машине - American Girl, в исполнении Tom Petty and the Heartbreakers - в настоящей раздаче ее также нет.
01. Bruce Springsteen - Streets Of Philadelphia
02. Peter Gabriel - Lovetown
03. Pauletta Washington - It's In Your Eyes
04. Ram - Ibo Lele (Dreams Come True)
05. Sade - Please Send Me Someone To Love
06. Spin Doctors - Have You Ever Seen The Rain?
07. Indigo Girls - I Don't Wanna Talk About It
08. Maria Callas - Mamma Morta
09. Neil Young - Philadelphia
10. Howard Shore - Precedent
 
AUDIOCHECKER v1.2 - by Dester - opdester@freemail.hu~~~~~~~~~~~~~~~~~

1 -===- C:\New Folder\Philadelphia.ape Extracted successfully Conclusion: This track looks like CDDA with probability 100%
01. Senior Associate Andrew Beckett
02. Minor Catastrophe
03. Birth
04. Idomeneo: Non Temer Amato Bene
05. I Have A Case
06. The Missing Document
07. The Essence Of Discrimination
08. Going Home
09. The Trial
10. La Wally: Ebben? Ne Andro Lontana
11. Trying To Survive
12. Andrea Chenier: La Mamma Morta
13. An Excellent Lawyer
14. Calculated Risks
15. The Verdict
16. I'm Ready
 
EAC extraction logfile from 20. December 2006, 17:00 for CDOriginal Motion Picture Soundtrack / Philadelphia

Used drive : BENQ DVD DD DW1640 Adapter: 0 ID: 0Read mode : Secure with NO C2, accurate stream, disable cacheRead offset correction : 618Overread into Lead-In and Lead-Out : No

Used output format : C:\Program Files\EAC\wapet.exe (User Defined Encoder) 192 kBit/s Additional command line options : %d -t "Artist=%a" -t "Title=%t" -t "Album=%g" -t "Year=%y" -t "Track=%n" -t "Genre=%m" "C:\Program Files\Monkey's Audio\MAC.exe" %s %d -c2000

Other options : Fill up missing offset samples with silence : Yes Delete leading and trailing silent blocks : No Installed external ASPI interface

Range status and errorsSelected range Filename D:\Nowy folder\Original Motion Picture Soundtrack - Philadelphia\Original Motion Picture Soundtrack - Philadelphia.wav

Peak level 99.8 % Range quality 100.0 % CRC C66E0356 Copy OK

No errors occured

End of status report
01. Main Title (05:08)
02. Backlot (01:09)
03. Mr. Lugosi / Hypno Theme (01:58)
04. Beware (00:58)
05. Glen Or Glenda (01:20)
06. Eddie, Help Me (01:58)
07. Elmogambo (03:22)
08. Bride Of The Monster (01:20)
09. I Have No Home (01:22)
10. Kuba Mambo (01:55)
11. Nautch Dance (01:29)
12. Angora (01:28)
13. Sanitarium (03:43)
14. Ed & Kathy (01:30)
15. Elysium (02:19)
16. "Grave Robbers" Begins (01:19)
17. Lurk Him (01:08)
18. Ed Takes Control (04:09)
19. Eddie Takes A Bow (01:02)
20. This Is The One (01:58)
21. Ed Wood [Video] (03:23)
 
EAC extraction logfile from 17. December 2005, 20:44 for CDHoward Shore / Ed wood

Used drive : _NEC DVD_RW ND-3520AW Adapter: 1 ID: 0Read mode : Secure with NO C2, accurate stream, NO disable cacheRead offset correction : 0Overread into Lead-In and Lead-Out : No

Used output format : C:\Program Files\Monkey's Audio\MAC.exe (Monkey's Audio Lossless Encoder) High Lossless Compression

Other options : Fill up missing offset samples with silence : Yes Delete leading and trailing silent blocks : No Installed external ASPI interface

Range status and errorsSelected range Filename C:\_ed\CDImage.wav

Peak level 100.0 % Range quality 100.0 % CRC F9DFF2D8 Copy OK

No errors occured

End of status report
01. Statler Brothers - In The Beginning
02. Gravity Kills - Guilty
03. Gaye, Marvin - Trouble Man
04. Lynne, Gloria - Speaking Of Happiness
05. Bach, Johann Sebastian - Air For The G String
06. Haircut 100 - Love Plus One
07. Holiday, Billie - I Cover The Waterfront
08. Parker, Charlie - Now's The Time
09. Monk, Thelonious - Straight, No Chaser
10. Shore, Howard - Portrait Of John Doe
11. Shore, Howard - Suite From Se7En
 
Exact Audio Copy V0.99 prebeta 1 from 25. May 2007

EAC extraction logfile from 17. October 2007, 20:03

Various / Se7en

Used drive : PLEXTOR DVDR PX-760A Adapter: 3 ID: 0

Read mode : SecureUtilize accurate stream : YesDefeat audio cache : YesMake use of C2 pointers : No

Read offset correction : 30Overread into Lead-In and Lead-Out : YesFill up missing offset samples with silence : YesDelete leading and trailing silent blocks : NoUsed interface : Installed external ASPI interface

Used output format : Internal WAV RoutinesSample format : 44.100 Hz; 16 Bit; Stereo

TOC of the extracted CD

Track | Start | Length | Start sector | End sector --------------------------------------------------------- 1 | 0:00.32 | 2:22.23 | 32 | 10704 2 | 2:22.55 | 4:05.62 | 10705 | 29141 3 | 6:28.42 | 3:50.28 | 29142 | 46419 4 | 10:18.70 | 2:33.02 | 46420 | 57896 5 | 12:51.72 | 3:39.25 | 57897 | 74346 6 | 16:31.22 | 3:37.50 | 74347 | 90671 7 | 20:08.72 | 3:20.30 | 90672 | 105701 8 | 23:29.27 | 4:16.60 | 105702 | 124961 9 | 27:46.12 | 9:38.28 | 124962 | 168339 10 | 37:24.40 | 4:57.25 | 168340 | 190639 11 | 42:21.65 | 14:48.37 | 190640 | 257276

Range status and errors

Selected range

Filename G:\Various - Se7en OST\Various - Se7en.wav

Peak level 99.9 % Range quality 100.0 % Test CRC FD8D9A3D Copy CRC FD8D9A3D Copy OK

AccurateRip summary

Track 1 accurately ripped (confidence 4) [5A721BC1]Track 2 accurately ripped (confidence 4) [9D313353]Track 3 accurately ripped (confidence 3) [3F473695]Track 4 accurately ripped (confidence 4) [B445CFE1]Track 5 accurately ripped (confidence 4) [A40EC97A]Track 6 accurately ripped (confidence 3) [EF97D63F]Track 7 accurately ripped (confidence 3) [750F38B3]Track 8 accurately ripped (confidence 3) [D294E765]Track 9 accurately ripped (confidence 3) [9F6EA5DF]Track 10 accurately ripped (confidence 3) [84D4091D]Track 11 accurately ripped (confidence 3) [02E60429]

No errors occurred

End of status report
01. Wallpaper
02. Monday
03. Gluttony
04. End Of Greed
05. Return To Gluttony
06. Somerset Alone
07. Greed Photos, Pt. 1
08. Greed Photos, Pt. 2
09. Tracy
10. Behind The Painting
11. Help Me
12. Waiting
13. Swat
14. Sloth
15. Victor In Hospital
16. The Blackboard
17. Field Trip
18. Chasing John Doe
19. The Apartment
20. Books / Phone
21. End Of Lust
22. Pride Montage
23. Arresting John Doe
24. Wearing The Wire
25. The Desert
26. Envy And Wrath
 
EAC extraction logfile from 19. February 2006, 18:41 for CDHoward Shore / Se7en

Used drive : HL-DT-STDVD-ROM GDR8163B Adapter: 0 ID: 0Read mode : Secure with NO C2, accurate stream, disable cacheRead offset correction : 102Overread into Lead-In and Lead-Out : No

Used output format : Internal WAV Routines 44.100 Hz; 16 Bit; Stereo

Other options : Fill up missing offset samples with silence : Yes Delete leading and trailing silent blocks : No Installed external ASPI interface

Range status and errorsSelected range Filename H:\Howard Shore - Se7en (Unreleased)\Howard Shore - Se7en.wav

Peak level 99.8 % Range quality 100.0 % CRC 5DCDC52B Copy OK

No errors occured

End of status report
01. Main Title
02. Searching For Clues
03. Destroying Evidence
04. Looking For Jacob
05. First Postcard
06. Dr. Ryan
07. Apprehended
08. Preliminary Hearing
09. Ben & Carolyn
10. Treehouse
11. The Confession
12. The Grand Jury
13. Carolyn
14. It's Your Fault
15. The Truth
16. Jacob's Gone
17. Before And After
 
EAC extraction logfile from 27. June 2006, 22:00 for CDHoward Shore / Before And After

Used drive : ASUS DRW-1608P Adapter: 1 ID: 0Read mode : Secure with NO C2, accurate stream, disable cacheRead offset correction : 48Overread into Lead-In and Lead-Out : No

Used output format : Internal WAV Routines 44.100 Hz; 16 Bit; Stereo

Other options : Fill up missing offset samples with silence : Yes Delete leading and trailing silent blocks : No Installed external ASPI interface

Range status and errorsSelected range Filename C:\temp\Howard Shore - Before and After\Music\CDImage.wav

Peak level 100.0 % Range quality 100.0 % CRC 6A1D65F0 Copy OK

No errors occured

End of status report
01. Crash
02. Ciniterra
03. Mechanism Of Occupant Election
04. Mirror Image
05. Where's The Car ?
06. Sexual Logic
07. Road Research Laboratory
08. Mansfield Bower
09. Chromum Bower
10. A Benevolent Psychopatholgy
11. Two Semi-Metalic Human Beings
12. Triton
13. Accident...Accident...
14. A Crushed Convertible
15. Prophecy Is Dirty And Ragged
 
EAC extraction logfile from 29. September 2005, 9:14 for CDHoward Shore / Crash

Used drive : SONY CD-ROM CDU5221 Adapter: 0 ID: 1Read mode : Secure with NO C2, accurate stream, disable cacheCombined read/write offset correction : 0Overread into Lead-In and Lead-Out : No

Used output format : Internal WAV Routines 44.100 Hz; 16 Bit; Stereo

Other options : Fill up missing offset samples with silence : Yes Delete leading and trailing silent blocks : No Installed external ASPI interface

Range status and errorsSelected range Filename C:\Howard Shore-Crash.wav

Peak level 99.2 % Range quality 99.9 % CRC 39922C8B Copy OK

No errors occured

End of status report
01. Happy Birthday, Nicholas
02. Consumer Recreation Services
03. Harlequin Clown
04. House Of Pain
05. Van Orton Mansion
06. Congratulations On Choosing C.R.S.
07. Room 277
08. Illegal Surveillance
09. Reckless Endangerment
10. Attempted Murder
11. Mausoleum
12. Tung Hoy
13. Pulling Back The Curtain
14. White Rabbit (performed by Jefferson Airplane)
 
EAC extraction logfile from 12. January 2006, 22:20 for CDHoward Shore / The Game

Used drive : SlimtypeCOMBO LSC-24082K Adapter: 1 ID: 0Read mode : Secure with NO C2, accurate stream, disable cacheRead offset correction : 0Overread into Lead-In and Lead-Out : No

Used output format : Internal WAV Routines 44.100 Hz; 16 Bit; Stereo

Other options : Fill up missing offset samples with silence : Yes Delete leading and trailing silent blocks : No Installed external ASPI interface

Range status and errorsSelected range Filename H:\P2P folders\Emule Directory\makin' apes\The Game\Music\CDImage.wav

Peak level 100.0 % Range quality 99.9 % CRC 49CF862A Copy OK

No errors occured

End of status report
01. Still (performed by Alanis Morissette)
02. Dogma
03. Behold The Metatron
04. Mooby The Golden Calf
05. The Golgothan
06. The Last Scion
07. Stygian Triplets
08. Bartleby & Loki
09. John Doe Jersey
10. A Very Relieved Deity
 
EAC extraction logfile from 6. February 2007, 15:54 for CDHoward Shore / Dogma

Used drive : ATAPI-CDROM-DRIVE-50MAX Adapter: 1 ID: 1Read mode : Secure with NO C2, accurate stream, disable cacheRead offset correction : 12Overread into Lead-In and Lead-Out : No

Used output format : Internal WAV Routines 44.100 Hz; 16 Bit; Stereo

Other options : Fill up missing offset samples with silence : Yes Delete leading and trailing silent blocks : No Installed external ASPI interface

Range status and errorsSelected range Filename I:\HQShare\dogma.wav

Peak level 99.0 % Range quality 100.0 % CRC F9211874 Copy OK

No errors occured

End of status report
01. Main Title
02. Customs
03. Flashback
04. Recon
05. Sapperstein
06. Ironclad
07. Files
08. The Score Begins
09. Set Up
10. Run Late
11. Suspended
12. Bye Bye
 
EAC extraction logfile from 18. November 2006, 12:35 for CDHoward Shore / The Score

Used drive : PIONEER DVD-RW DVR-109 Adapter: 1 ID: 1Read mode : Secure with NO C2, accurate stream, disable cacheRead offset correction : 48Overread into Lead-In and Lead-Out : No

Used output format : Internal WAV Routines 44.100 Hz; 16 Bit; Stereo

Other options : Fill up missing offset samples with silence : Yes Delete leading and trailing silent blocks : No Installed external ASPI interface

Range status and errorsSelected range Filename C:\Lanzamientos\The Score.wav

Peak level 98.8 % Range quality 99.9 % CRC DA5DAEFB Copy OK

No errors occured

End of status report
1. Main Title
2. Caution - Flammable
3. Working Elevator
4. Fourth Floor Hallway
5. Locking Us In
6. Castle Keep
7. What We Want Is In That Room
8. Zone 19 Disabled
9. A Very Emotional Property
 
EAC extraction logfile from 20. June 2006, 17:41 for CDHoward Shore / Panic Room

Used drive : HL-DT-STDVDRAM GSA-5163D Adapter: 3 ID: 0Read mode : Secure with NO C2, accurate stream, disable cacheRead offset correction : 667Overread into Lead-In and Lead-Out : No

Used output format : Internal WAV Routines 44.100 Hz; 16 Bit; Stereo Use compression offset : 2257

Other options : Fill up missing offset samples with silence : Yes Delete leading and trailing silent blocks : No Installed external ASPI interface

Range status and errorsSelected range Filename E:\HQ ShareNet\Panic Room\Howard Shore - Panic Room.wav

Peak level 100.0 % Range quality 100.0 % CRC 022957B3 Copy OK

No errors occured

End of status report
01. Icarus
02. There Is No Great Genius Without Some Form Of Madness
03. Muirfield
04. H-1 Racer Plane
05. Quarantine
06. Hollywood 1927
07. The Mighty Hercules
08. Howard Robard Hughes, Jr.
09. America's Aviation Hero
10. 7000 Romaine
11. The Germ Free Zone
12. Screening Room
13. Long Beach Harbour 1947
14. The Way Of The Future
 
EAC extraction logfile from 27. February 2006, 19:29 for CDHoward Shore / The Aviator - Original Score

Used drive : PIONEER DVD-ROM DVD-121 Adapter: 1 ID: 2Read mode : Secure with NO C2, accurate stream, disable cacheRead offset correction : 0Overread into Lead-In and Lead-Out : No

Used output format : Internal WAV Routines 44.100 Hz; 16 Bit; Stereo

Other options : Fill up missing offset samples with silence : Yes Delete leading and trailing silent blocks : No Installed external ASPI interface

Range status and errorsSelected range Filename R:\ape\aviator.wav

Peak level 97.9 % Range quality 100.0 % CRC FA15C4D0 Copy OK

No errors occured

End of status report
01. Motel
02. Tom
03. Cheerleader
04. Diner
05. Hero
06. Run
07. Violence
08. Porch
09. Alone
10. The Staircase
11. The Road
12. Nice Gate
13. The Return
14. Ending
 
EAC extraction logfile from 14. January 2006, 1:28 for CDHoward Shore / A History Of Violence

Used drive : _NEC DVD_RW ND-1300A Adapter: 1 ID: 1Read mode : Secure with NO C2, accurate stream, disable cacheCombined read/write offset correction : 0Overread into Lead-In and Lead-Out : No

Used output format : Internal WAV Routines 44.100 Hz; 16 Bit; Stereo

Other options : Fill up missing offset samples with silence : Yes Delete leading and trailing silent blocks : No Installed external ASPI interface

Range status and errorsSelected range Filename C:\Lanzamientos\A History Of Violence.wav

Peak level 97.5 % Range quality 100.0 % CRC 427A99CC Copy OK

No errors occured

End of status report
01. Sanctuary Of Ether
02. A Prelude To Revolt
03. Tides Of Hope
04. Helron's Castle
05. The Triumph
06. The Valley Of Dragons
07. Forest Of The Beasts
08. Empire Geist
09. The Epitaph
10. Night Of The Cresent Moon
11. Hymns Of Battlefields
12. Immortal Emperor
13. March To Victory
14. A Poem For Nemesis
15. Soul Of The Ultimate Nation
16. Requiem For The Dead
17. Ethereal Life
18. A Pernicious Plot
19. Graveyard Of Aiort
20. Menace Of The Army Wings
 
EAC extraction logfile from 2. October 2006, 15:43 for CDHoward Shore / Soul of the Utimate Nation

Used drive : PIONEER DVD-ROM DVD-106 Adapter: 1 ID: 0Read mode : Secure with NO C2, accurate stream, disable cacheRead offset correction : 102Overread into Lead-In and Lead-Out : No

Used output format : C:\Program Files\FLAC\flac.exe (User Defined Encoder) 320 kBit/s Additional command line options : --best -V -T "date=%y" -T "genre=%m" %s

Other options : Fill up missing offset samples with silence : Yes Delete leading and trailing silent blocks : No Installed external ASPI interface

Range status and errorsSelected range Filename F:\Temp\Soul of the Ultimate Nation\Howard Shore - Soul of the Utimate Nation.flac.wav

Peak level 100.0 % Range quality 100.0 % CRC 42425B27 Copy OK

No errors occured

End of status report
01. Cops Or Criminals
02. 344 Wash
03. Beacon Hil
04. The Faithful Departed
05. Colin
06. Madolynl
07. Billy's Themel
08. Command
09. Chinatown
10. Boston Commonl
11. Miss Thing
12. The Baby
13. The Last Rites
14. The Departed Tango
 
EAC extraction logfile from 16. December 2006, 23:44 for CDHoward Shore / The Departed

Used drive : PIONEER DVD-RW DVR-109 Adapter: 1 ID: 1Read mode : Secure with NO C2, accurate stream, disable cacheRead offset correction : 48Overread into Lead-In and Lead-Out : No

Used output format : Internal WAV Routines 44.100 Hz; 16 Bit; Stereo

Other options : Fill up missing offset samples with silence : Yes Delete leading and trailing silent blocks : No Installed external ASPI interface

Range status and errorsSelected range Filename C:\Lanzamientos\Howard Shore - The Departed\The Departed.wav

Peak level 98.6 % Range quality 100.0 % CRC 9755454C Copy OK

No errors occured

End of status report
01. Eastern Promises
02. Tatiana
03. London Streets
04. Sometimes Birth And Death Go Together
05. Trafalgar Hospital
06. Vory V Zakone
07. Slavery And Suffering
08. Nikolai
09. Kirill
10. Anna Khitrova
11. Eagle And Star
12. Nine Elms
13. Like A Place In The Bible
14. Trans-Siberian Diary
 
Exact Audio Copy V0.99 prebeta 3 from 28. July 2007

EAC extraction logfile from 12. January 2008, 19:45

Howard Shore / Eastern Promises - Original Motion Picture Soundtrack

Used drive : QSI CDRW/DVD SBW-241 Adapter: 1 ID: 0

Read mode : SecureUtilize accurate stream : YesDefeat audio cache : YesMake use of C2 pointers : No

Read offset correction : 733Overread into Lead-In and Lead-Out : NoFill up missing offset samples with silence : YesDelete leading and trailing silent blocks : NoNull samples used in CRC calculations : YesUsed interface : Installed external ASPI interface

Used output format : Internal WAV RoutinesSample format : 44.100 Hz; 16 Bit; Stereo

TOC of the extracted CD

Track | Start | Length | Start sector | End sector --------------------------------------------------------- 1 | 0:00.00 | 5:04.15 | 0 | 22814 2 | 5:04.15 | 5:11.51 | 22815 | 46190 3 | 10:15.66 | 1:56.06 | 46191 | 54896 4 | 12:11.72 | 1:53.24 | 54897 | 63395 5 | 14:05.21 | 1:33.36 | 63396 | 70406 6 | 15:38.57 | 0:48.25 | 70407 | 74031 7 | 16:27.07 | 2:00.09 | 74032 | 83040 8 | 18:27.16 | 1:19.30 | 83041 | 88995 9 | 19:46.46 | 2:09.19 | 88996 | 98689 10 | 21:55.65 | 3:25.37 | 98690 | 114101 11 | 25:21.27 | 1:25.24 | 114102 | 120500 12 | 26:46.51 | 6:15.45 | 120501 | 148670 13 | 33:02.21 | 1:22.06 | 148671 | 154826 14 | 34:24.27 | 2:30.51 | 154827 | 166127

Range status and errors

Selected range

Filename D:\HQ Share\Howard Shore - Eastern Promises.wav

Peak level 99.3 % Range quality 100.0 % Copy CRC D66C5E87 Copy OK

No errors occurred

End of status report
01. The Mandala
02. Whidbey Island
03. Under The Bed
04. Cuddle
05. Beach
06. Scribbles
07. Blackout
08. Palm Readings
09. I Love The World
10. Help!
11. I Have To Look
12. Can I Talk?
13. Eyes
14. The Tear
15. Through The Looking Glass
16. Hello (I Love You) (with Roger Waters)
 
Exact Audio Copy V0.99 prebeta 1 from 25. May 2007

EAC extraction logfile from 19. October 2007, 19:08

Howard Shore / The Last Mimzy - OST

Used drive : PLEXTOR DVDR PX-760A Adapter: 3 ID: 0

Read mode : SecureUtilize accurate stream : YesDefeat audio cache : YesMake use of C2 pointers : No

Read offset correction : 30Overread into Lead-In and Lead-Out : YesFill up missing offset samples with silence : YesDelete leading and trailing silent blocks : NoUsed interface : Installed external ASPI interface

Used output format : Internal WAV RoutinesSample format : 44.100 Hz; 16 Bit; Stereo

TOC of the extracted CD

Track | Start | Length | Start sector | End sector --------------------------------------------------------- 1 | 0:00.00 | 1:38.36 | 0 | 7385 2 | 1:38.36 | 3:21.13 | 7386 | 22473 3 | 4:59.49 | 2:46.37 | 22474 | 34960 4 | 7:46.11 | 1:27.74 | 34961 | 41559 5 | 9:14.10 | 1:59.04 | 41560 | 50488 6 | 11:13.14 | 2:38.49 | 50489 | 62387 7 | 13:51.63 | 3:16.45 | 62388 | 77132 8 | 17:08.33 | 4:12.02 | 77133 | 96034 9 | 21:20.35 | 0:52.09 | 96035 | 99943 10 | 22:12.44 | 1:20.10 | 99944 | 105953 11 | 23:32.54 | 4:09.51 | 105954 | 124679 12 | 27:42.30 | 5:25.51 | 124680 | 149105 13 | 33:08.06 | 2:15.01 | 149106 | 159231 14 | 35:23.07 | 4:07.00 | 159232 | 177756 15 | 39:30.07 | 5:02.53 | 177757 | 200459 16 | 44:32.60 | 6:16.29 | 200460 | 228688

Range status and errors

Selected range

Filename G:\Howard Shore - The Last Mimzy OST (2006)\Howard Shore - The Last Mimzy.wav

Peak level 100.0 % Range quality 100.0 % Test CRC C0D66D1F Copy CRC C0D66D1F Copy OK

AccurateRip summary

Track 1 not present in databaseTrack 2 not present in databaseTrack 3 not present in databaseTrack 4 not present in databaseTrack 5 not present in databaseTrack 6 not present in databaseTrack 7 not present in databaseTrack 8 not present in databaseTrack 9 not present in databaseTrack 10 not present in databaseTrack 11 not present in databaseTrack 12 not present in databaseTrack 13 not present in databaseTrack 14 not present in databaseTrack 15 not present in databaseTrack 16 not present in database

No errors occurred

End of status report

Один из лучших композиторов современности, подтверждением чему служат три Оскара, полученные им за Властелина Колец - хотя подтверждением весьма условным, так как лично я считаю его главными достижениями совсем другие композиции, среди которых очень красивая Eastern Promises, великолепная мелодия из Crash, потрясающая финальная композиция из Silence of the Lambs, и многие другие произведения. Наслаждайтесь!

В связи с большим объемом раздач, внешним динамическим IP, закрытыми портами, а также сравнительно малым размером канала, НАСТОЯТЕЛЬНАЯ ПРОСЬБА!!! - сидировать, насколько хватит сил!!!

Источник - HQShare.net



Трекер:  [ 08-Июл-2011 22:43 ]

  

Скачать .torrent

Размер .torrent файла 30 KB


Размер: 3.94 GB
Хэш (hash) релиза: ec51fc82ecd0336f273df4121e975ba981dab11d

Еще никто не оставлял запись к записи скачать торрент Howard Shore - Собрание сочинений . Будь первым!

!Обратная связь