Скачать через торрент музыку Amarcord Амаркорд - Nino Rota, APE бесплатно без регистрации torrent

Если у вас наблюдаются проблемы со скриншотами, переходом по ссылками, скачиванием торрентов - проблемы в блокировщике рекламы AdBlock. #хорошегоДня!


Статистика раздачи
Размер:  331 MB   |    Зарегистрирован:  6 лет 2 месяца   |    .torrent скачан:  49 раз   |   
Раздают:  1  
   
Загрузка...
 
Автор Сообщение

Galfimbul

avatar Galfimbul


Amarcord / Амаркорд - Nino Rota

Жанр: soundtrack
Производитель диска: Italy
Аудио кодек: APE
Тип рипа: image+.cue
Битрейт аудио: lossless
Продолжительность: 72:23
Трэклист:
AMARCORD

1. AMARCORD 2:12
2. LA "FOGARACCIA" 2:11
3. LE "MANINE" Dl PRIMAVERA 3:07
4. LO"STRUSCIO" 3:52
QUEL MOTIVETTO CHE Ml PIACE TANTO (CASLAR - GALDIERI - Ed. CURCI)
STORMY WEATHER (ARLEN - HOEHLER - CAGIS - Ed. CURCI)
5. L'EMIRO E LE SUE ODALISCHE 2:26
Abat-jour (COBIANCO - NERI - ED. LA CANZONETTA)
6. GARY COOPER 1:18
7. LA GRADIESTA E IL PRINCIPE 2:25
8. Tl RICORDI Dl "SIBONEY"? 2:04 SIBONEY(LECUONA, ED. F.DAY)
9. DANZANDO NELLA NEBBIA 1:46
10. TUTTI A VERDERE IL REX 2:24
11. QUAIMTO Ml PIACE LA GRADISCA3:05
12. LA GRADISCA SI SPOSA E SE NE VA 2:14
13. AMARCORD (PINO CALVI, PIANISTA E ORCHESTRA) 2:34

BONUS:

LA DOLCE VITA
14. BLUES (LA DOLCE VITA DEI NOBILI) 5:42

8 1/2
15. LA PASSERELLA Dl 8 1/2 2:21
16. E POI (VALZER) 2:21
17. L'ILLUSIONISTA2:17
1 8. CARLOTTA'S GALOP 2:34
19. LA PASSERELLA Dl ADDIO 5:11

LE NOTTI Dl CABIRIA
20. ASPETTANDO GIORGIO 2:02
21. E LA VITA CONTINUA - FINALE 2:41

BOCCACCIO 70
22. LA GRANDE SEDUZIONE 5:26

PROVA D'ORCHESTRA
23-28 TRACKS 10:05
Доп. информация: Режиссер - Федерико Феллини
Дирижер - Карло Савина
Exact Audio Copy V0.99 prebeta 1 from 25. May 2007

Отчёт EAC об извлечении, выполненном 5. февраля 2009, 23:45

- / Amarcord

Дисковод: HL-DT-STDVDRAM GSA-T10N Adapter: 0 ID: 1

Режим чтения : Достоверность
Использование точного потока : Да
Отключение кэша аудио : Да
Использование указателей C2 : Нет

Коррекция смещения при чтении : 667
Способность читать области Lead-in и Lead-out : Нет
Заполнение пропущенных сэмплов тишиной : Да
Удаление блоков с тишиной в начале и конце : Нет
Интерфейс : Встроенный Win32-интерфейс для Win NT/2000

Выходной формат : Внутренние WAV-операции
Формат сэмплов : 44.100 Гц; 16 бит; стерео

TOC извлечённого CD

Трек | Старт | Длительность | Начальный сектор | Конечный сектор
---------------------------------------------------------------------
1 | 0:00.00 | 2:04.17 | 0 | 9316
2 | 2:04.17 | 2:12.29 | 9317 | 19245
3 | 4:16.46 | 3:07.30 | 19246 | 33300
4 | 7:24.01 | 3:52.68 | 33301 | 50768
5 | 11:16.69 | 2:27.73 | 50769 | 61866
6 | 13:44.67 | 1:19.68 | 61867 | 67859
7 | 15:04.60 | 2:26.26 | 67860 | 78835
8 | 17:31.11 | 2:06.00 | 78836 | 88285
9 | 19:37.11 | 1:48.33 | 88286 | 96418
10 | 21:25.44 | 2:25.44 | 96419 | 107337
11 | 23:51.13 | 3:06.55 | 107338 | 121342
12 | 26:57.68 | 2:14.05 | 121343 | 131397
13 | 29:11.73 | 2:37.22 | 131398 | 143194
14 | 31:49.20 | 5:44.13 | 143195 | 169007
15 | 37:33.33 | 2:22.67 | 169008 | 179724
16 | 39:56.25 | 2:02.44 | 179725 | 188918
17 | 41:58.69 | 2:18.65 | 188919 | 199333
18 | 44:17.59 | 2:31.11 | 199334 | 210669
19 | 46:48.70 | 5:12.26 | 210670 | 234095
20 | 52:01.21 | 2:04.57 | 234096 | 243452
21 | 54:06.03 | 2:42.61 | 243453 | 255663
22 | 56:48.64 | 5:29.49 | 255664 | 280387
23 | 62:18.38 | 0:49.27 | 280388 | 284089
24 | 63:07.65 | 1:21.28 | 284090 | 290192
25 | 64:29.18 | 1:55.38 | 290193 | 298855
26 | 66:24.56 | 1:14.13 | 298856 | 304418
27 | 67:38.69 | 2:22.49 | 304419 | 315117
28 | 70:01.43 | 2:21.56 | 315118 | 325748

Характеристики диапазона извлечения и сообщения об ошибках

Выбранный диапазон

Имя файла C:\Documents and Settings\user\Мои документы\amarcord_[http://рутраскер]\Amarcord.wav

Пиковый уровень 99.7 %
Качество диапазона 100.0 %
CRC копии 26B9EEB9
Копирование... OK

AccurateRip: сводка

Трек 1 нет в базе данных
Трек 2 нет в базе данных
Трек 3 нет в базе данных
Трек 4 нет в базе данных
Трек 5 нет в базе данных
Трек 6 нет в базе данных
Трек 7 нет в базе данных
Трек 8 нет в базе данных
Трек 9 нет в базе данных
Трек 10 нет в базе данных
Трек 11 нет в базе данных
Трек 12 нет в базе данных
Трек 13 нет в базе данных
Трек 14 нет в базе данных
Трек 15 нет в базе данных
Трек 16 нет в базе данных
Трек 17 нет в базе данных
Трек 18 нет в базе данных
Трек 19 нет в базе данных
Трек 20 нет в базе данных
Трек 21 нет в базе данных
Трек 22 нет в базе данных
Трек 23 нет в базе данных
Трек 24 нет в базе данных
Трек 25 нет в базе данных
Трек 26 нет в базе данных
Трек 27 нет в базе данных
Трек 28 нет в базе данных

Ошибок не произошло

Конец отчёта


Трекер:  [ 08-Июл-2011 22:45 ]

  

Скачать .torrent

Размер .torrent файла 13 KB


Размер: 331 MB
Хэш (hash) релиза: 2b078b51234f3ea3a3eaa66f103d8f4954827cb1

Еще никто не оставлял запись к записи скачать торрент Amarcord Амаркорд - Nino Rota, APE . Будь первым!

!Обратная связь