Скачать через торрент музыку бесплатно без регистрации torrent

Если у вас наблюдаются проблемы со скриншотами, переходом по ссылками, скачиванием торрентов - проблемы в блокировщике рекламы AdBlock. #хорошегоДня!


Статистика раздачи
Размер:  1.03 GB   |    Зарегистрирован:  4 года 7 месяцев   |    .torrent скачан:  32 раза   |   
Раздают:  1  
   
Загрузка...
 
Автор Сообщение

Galfimbul

avatar Galfimbul


Llama - Public Tatoos

Жанр: Electronic, Improvisation
Год выпуска: 1991
Лейбл: self released
Страна-производитель: USA
Аудио кодек: FLAC
Тип рипа: tracks+.cue
Формат записи: 24/96
Формат раздачи: 24/48
Продолжительность: 1:34:49
Треклист:

1. Part I [8:00]
2. Part II [39:25]
3. Part III [47:24]

David Cook – Casio;
Billy Romanowski – Macintosh, guitar;
Debi Sellers – vocals, percussions;
Walter Wright – Ensoniq EPS sampler, bodhran, percussion.

Recorded July 1991.

Llama исполняла импровизационную музыку следуя принципам дадаизма начала ХХ века – «искусство, которое не имеет значения». Все записанные пьесы, на концертах или в студии, никогда не прерывались и музыканты играли буквально то, что приходило им в голову в данный момент. Группа никогда не репетировала, что в общем-то очевидно. Все пьесы представлены так, как они были в своё время записаны, т.е. никакой последующей студийной обработки не было. В основном все записанные сессии были длиной в 45 минут, т.е. ровно столько, сколько влезало на одну сторону магнитофонной кассеты.

Источник оцифровки: выполнена автором раздачи
Устройство воспроизведения: Sony TC-K790ES
АЦП: Tascam US-122mkII
Программа-оцифровщик: Sound Forge 7.0
Обработка: никакой
Примечание: система шумоподавления "Dolby В" при воспроизведении была выключена.
В целом кассета представляет собой запись по одной бесконечной импровизации длительностью в одну сторону.
На первой стороне есть небольшая пауза на восьмой минуте, что позволило отрезать этот кусочек в качестве сэмпла.
Запись начинается буквально с самого начала пленки и обрывается в конце.
Так что никаких кусочков с образцами шума ленты здесь привести не удалось.
Но пленка хромовая, шумит мало.
In 1991, I was fortunate enough to be asked by Walter Wright, the famous video pioneer of the 60's & 70's, to join the improvisational electronic music band called LLAMA. Along with three other extremely talented musicians, David Cook, Billy Romanowski, & Debi Sellers, we recorded more than 100+ hours of studio and live sessions from 1991 to 1994. We toured the Midwest playing live shows at universities, nightclubs and outdoor events. Some of the more impressive live shows were accompanied by live interactive computer graphics on a wide screen projector in the background. The live music was fed into computer graphics processing equipment which produced some very impressive "real-time" visuals. (Keith Meiere)
http://rezultat.atknet.ru/reviews/?132
foobar2000 1.1.11 / Dynamic Range Meter 1.1.1
log date: 2013-02-27 10:42:48

--------------------------------------------------------------------------------
Analyzed: LLAMA / Public Tatoos
--------------------------------------------------------------------------------

DR Peak RMS Duration Track
--------------------------------------------------------------------------------
DR12 -3.66 dB -19.16 dB 8:00 1-Part I
DR13 -0.08 dB -17.51 dB 39:25 2-Part II
DR12 -0.09 dB -15.26 dB 47:24 3-Part III
--------------------------------------------------------------------------------

Number of tracks: 3
Official DR value: DR12

Samplerate: 48000 Hz
Channels: 2
Bits per sample: 24
Bitrate: 1556 kbps
Codec: FLAC
================================================================================


Трекер:  [ 19-Мар-2013 18:21 ]

  

Скачать .torrent

Размер .torrent файла 11 KB


Размер: 1.03 GB
Хэш (hash) релиза: cede20269f351c330275161f592fb2be081de227

Еще никто не оставлял запись к записи скачать торрент . Будь первым!

!Обратная связь