Скачать через торрент музыку Пила 5 Saw V бесплатно без регистрации torrent

Если у вас наблюдаются проблемы со скриншотами, переходом по ссылками, скачиванием торрентов - проблемы в блокировщике рекламы AdBlock. #хорошегоДня!


Статистика раздачи
Размер:  508 MB   |    Зарегистрирован:  6 лет 2 месяца   |    .torrent скачан:  38 раз   |   
Раздают:  1  
   
Загрузка...
 
Автор Сообщение

Galfimbul

avatar Galfimbul


Пила 5 / Saw V

Жанр: Soundtrack
Год выпуска диска: 2008
Производитель диска: Synthetic Symphony
Аудио кодек: FLAC
Тип рипа: tracks+.cue
Битрейт аудио: lossless
Продолжительность: 01:08:24

01 - Charlie Clouser - Trap Attacks (04:13)
02 - Testament - True Believer (03:37)
03 - Ministry - Death and destruction (Remix) (05:09)
04 - Filter - What's next (The blood & Sand mix) (03:27)
05 - The almighty - Thanks again, again (04:11)
06 - Prong - The banishment (06:01)
07 - Die Krupps - The dawning of doom (03:46)
08 - Clutch - Power Player (03:06)
09 - Skinny Puppy - Ugli (06:32)
10 - William Control - Strangers (04:04)
11 - Emilie Autumn - Unlaced (03:26)
12 - Fixmer - McCarthy / Blood and music (04:12)
13 - The revolting cocks - Wizard of sextown (07:20)
14 - Funker Vogt - Date of expiration (Expired) (04:33)
15 - Charlie Clouser - What it takes (04:47)

Источник: what.cd
 
Exact Audio Copy V0.99 prebeta 5 from 4. May 2009

EAC extraction logfile from 20. February 2010, 2:59

Various Artists / Saw V Soundtrack

Used drive : TSSTcorpCDDVDW SE-S224Q Adapter: 3 ID: 0

Read mode : SecureUtilize accurate stream : YesDefeat audio cache : YesMake use of C2 pointers : No

Read offset correction : 6Overread into Lead-In and Lead-Out : NoFill up missing offset samples with silence : YesDelete leading and trailing silent blocks : NoNull samples used in CRC calculations : YesUsed interface : Native Win32 interface for Win NT & 2000Gap handling : Appended to previous track

Used output format : User Defined EncoderSelected bitrate : 128 kBit/sQuality : HighAdd ID3 tag : NoCommand line compressor : D:\Programme\Exact Audio Copy\Flac\flac.exeAdditional command line options : -8 -V -T "artist=%a" -T "title=%t" -T "album=%g" -T "date=%y" -T "tracknumber=%n" -T "genre=%m" %s

TOC of the extracted CD

Track | Start | Length | Start sector | End sector --------------------------------------------------------- 1 | 0:00.00 | 4:13.14 | 0 | 18988 2 | 4:13.14 | 3:37.12 | 18989 | 35275 3 | 7:50.26 | 5:09.05 | 35276 | 58455 4 | 12:59.31 | 3:27.18 | 58456 | 73998 5 | 16:26.49 | 4:11.03 | 73999 | 92826 6 | 20:37.52 | 6:00.71 | 92827 | 119897 7 | 26:38.48 | 3:45.50 | 119898 | 136822 8 | 30:24.23 | 3:05.54 | 136823 | 150751 9 | 33:30.02 | 6:32.35 | 150752 | 180186 10 | 40:02.37 | 4:03.69 | 180187 | 198480 11 | 44:06.31 | 3:26.33 | 198481 | 213963 12 | 47:32.64 | 4:12.03 | 213964 | 232866 13 | 51:44.67 | 7:19.69 | 232867 | 265860 14 | 59:04.61 | 4:32.61 | 265861 | 286321 15 | 63:37.47 | 4:47.05 | 286322 | 307851

Track 1

Filename D:\Rips\01 - Trap Attacks.wav

Pre-gap length 0:00:02.00

Peak level 98.8 % Track quality 100.0 % Test CRC A7903023 Copy CRC A7903023 Track not present in AccurateRip database Copy OK

Track 2

Filename D:\Rips\02 - True Believer.wav

Peak level 98.8 % Track quality 99.9 % Test CRC 7C350FB4 Copy CRC 7C350FB4 Track not present in AccurateRip database Copy OK

Track 3

Filename D:\Rips\03 - Death and destruction (Remix).wav

Peak level 98.8 % Track quality 100.0 % Test CRC 2782014E Copy CRC 2782014E Track not present in AccurateRip database Copy OK

Track 4

Filename D:\Rips\04 - What's next (The blood & Sand mix).wav

Peak level 98.8 % Track quality 100.0 % Test CRC 611F98AB Copy CRC 611F98AB Track not present in AccurateRip database Copy OK

Track 5

Filename D:\Rips\05 - Thanks again, again.wav

Peak level 98.8 % Track quality 99.9 % Test CRC 63963129 Copy CRC 63963129 Track not present in AccurateRip database Copy OK

Track 6

Filename D:\Rips\06 - The banishment.wav

Peak level 98.8 % Track quality 99.9 % Test CRC C92E2ABE Copy CRC C92E2ABE Track not present in AccurateRip database Copy OK

Track 7

Filename D:\Rips\07 - The dawning of doom.wav

Peak level 84.9 % Track quality 100.0 % Test CRC 35C5072D Copy CRC 35C5072D Track not present in AccurateRip database Copy OK

Track 8

Filename D:\Rips\08 - Power Player.wav

Peak level 98.8 % Track quality 100.0 % Test CRC 7AF4BF2E Copy CRC 7AF4BF2E Track not present in AccurateRip database Copy OK

Track 9

Filename D:\Rips\09 - Ugli.wav

Peak level 98.8 % Track quality 99.9 % Test CRC 2A72C4BC Copy CRC 2A72C4BC Track not present in AccurateRip database Copy OK

Track 10

Filename D:\Rips\10 - Strangers.wav

Peak level 98.8 % Track quality 100.0 % Test CRC F5F86D49 Copy CRC F5F86D49 Track not present in AccurateRip database Copy OK

Track 11

Filename D:\Rips\11 - Unlaced.wav

Peak level 98.7 % Track quality 100.0 % Test CRC FE03EA4C Copy CRC FE03EA4C Track not present in AccurateRip database Copy OK

Track 12

Filename D:\Rips\12 - McCarthy , Blood and music.wav

Peak level 98.8 % Track quality 99.9 % Test CRC A272CE7E Copy CRC A272CE7E Track not present in AccurateRip database Copy OK

Track 13

Filename D:\Rips\13 - Wizard of sextown.wav

Peak level 98.8 % Track quality 100.0 % Test CRC 01BE11DC Copy CRC 01BE11DC Track not present in AccurateRip database Copy OK

Track 14

Filename D:\Rips\14 - Date of expiration (Expired).wav

Peak level 98.8 % Track quality 100.0 % Test CRC E86979E1 Copy CRC E86979E1 Track not present in AccurateRip database Copy OK

Track 15

Filename D:\Rips\15 - What it takes.wav

Peak level 98.8 % Track quality 100.0 % Test CRC 9600C92C Copy CRC 9600C92C Track not present in AccurateRip database Copy OK

None of the tracks are present in the AccurateRip database

No errors occurred

End of status report
 
REM GENRE MetalREM DATE 2008REM DISCID D210080FREM COMMENT "ExactAudioCopy v0.99pb5"PERFORMER "Various Artists"TITLE "Saw V Soundtrack"FILE "01 - Trap Attacks.wav" WAVE TRACK 01 AUDIO TITLE "Trap Attacks" PERFORMER "Charlie Clouser" INDEX 01 00:00:00FILE "02 - True Believer.wav" WAVE TRACK 02 AUDIO TITLE "True Believer" PERFORMER "Testament" INDEX 01 00:00:00FILE "03 - Death and destruction (Remix).wav" WAVE TRACK 03 AUDIO TITLE "Death and destruction (Remix)" PERFORMER "Ministry" INDEX 01 00:00:00FILE "04 - What's next (The blood & Sand mix).wav" WAVE TRACK 04 AUDIO TITLE "What's next (The blood & Sand mix)" PERFORMER "Filter" INDEX 01 00:00:00FILE "05 - Thanks again, again.wav" WAVE TRACK 05 AUDIO TITLE "Thanks again, again" PERFORMER "The almighty" INDEX 01 00:00:00FILE "06 - The banishment.wav" WAVE TRACK 06 AUDIO TITLE "The banishment" PERFORMER "Prong" INDEX 01 00:00:00FILE "07 - The dawning of doom.wav" WAVE TRACK 07 AUDIO TITLE "The dawning of doom" PERFORMER "Die Krupps" INDEX 01 00:00:00FILE "08 - Power Player.wav" WAVE TRACK 08 AUDIO TITLE "Power Player" PERFORMER "Clutch" INDEX 01 00:00:00FILE "09 - Ugli.wav" WAVE TRACK 09 AUDIO TITLE "Ugli" PERFORMER "Skinny Puppy" INDEX 01 00:00:00FILE "10 - Strangers.wav" WAVE TRACK 10 AUDIO TITLE "Strangers" PERFORMER "William Control" INDEX 01 00:00:00FILE "11 - Unlaced.wav" WAVE TRACK 11 AUDIO TITLE "Unlaced" PERFORMER "Emilie Autumn" INDEX 01 00:00:00FILE "12 - McCarthy , Blood and music.wav" WAVE TRACK 12 AUDIO TITLE "McCarthy / Blood and music" PERFORMER "Fixmer" INDEX 01 00:00:00FILE "13 - Wizard of sextown.wav" WAVE TRACK 13 AUDIO TITLE "Wizard of sextown" PERFORMER "The revolting cocks" INDEX 01 00:00:00FILE "14 - Date of expiration (Expired).wav" WAVE TRACK 14 AUDIO TITLE "Date of expiration (Expired)" PERFORMER "Funker Vogt" INDEX 01 00:00:00FILE "15 - What it takes.wav" WAVE TRACK 15 AUDIO TITLE "What it takes" PERFORMER "Charlie Clouser" INDEX 01 00:00:00



Трекер:  [ 08-Июл-2011 22:38 ]

  

Скачать .torrent

Размер .torrent файла 21 KB


Размер: 508 MB
Хэш (hash) релиза: cb21f3aed210b4306a16ac2ca776718a1bc9b25e

Торренты, похожие на Пила 5 Saw V скачать торрент

Форум Название Автор Размер S L Добавлен
Саундтреки к фильмам и мультфильмам (mp3) ·· (Score) Пила 5 / Saw V (by Charlie Clouser) - 2008, MP3, 128 kbps Mos 8599277782 MB 0 0 1292268094

22:21

13-Дек-10

Еще никто не оставлял запись к записи скачать торрент Пила 5 Saw V . Будь первым!

!Обратная связь