Скачать через торрент музыку Кама Сутра: история любви Kama Sutra: A Tale of Love бесплатно без регистрации torrent

Если у вас наблюдаются проблемы со скриншотами, переходом по ссылками, скачиванием торрентов - проблемы в блокировщике рекламы AdBlock. #хорошегоДня!


Статистика раздачи
Размер:  281 MB   |    Зарегистрирован:  6 лет 2 месяца   |    .torrent скачан:  51 раз   |   
Раздают:  1  
   
Загрузка...
 
Автор Сообщение

Galfimbul

avatar Galfimbul


Кама Сутра: история любви / Kama Sutra: A Tale of Love

Жанр: Soundtrack / Score
Композитор: Mychael Danna
Год выпуска диска: 1997
Производитель диска: TVT Records/Trimark Pictures
Аудио кодек: FLAC
Тип рипа: image+.cue
Битрейт аудио: lossless
Продолжительность: 53'13''
Источник: Рип собственного диска, прошел проверку accuraterip

Трэклист:
1.Omiya
2.Maya's Theme
3.Maya Takes Revenge
4.Aphrodisiac
5.Wedding Song
6.Jai's Flower
7.Eternal Triangle
8.Expulsion (Sajan Begha Ghar Aiye Ho)
9.All Pure Spirit
10.A Jewel Of The Gutter
11.Red Hibiscus On Skin
12.The Glory Of God Is In You
13.Gold Dust Bacchanalia
14.Marriage Of The Flying Spirit
15.Examining, Examining
16.Biki Is Insulted
17.Come Paint My Breasts With Sandalwood
18.Markings
19.A Cry From The Heart
20.My Flower
21.The Execution
22.The Toona Song
23.Off To New Horizons Of Love You Go (Ulfat Ki Nayi Manzil Ko Chala)
Саундтрек к индийско-американо-немецко-японскому фильму, имеющий самостоятельную художественную ценность.Музыку к фильму написал клавишник Майкл Данна, специализирующийся на традиционных медитативных произведениях. Однако на сей раз он избежал электроники, но использовал кучу экзотических инструментов, на которых сыграло множество "гостей". Впрочем, а какая же электроника может быть в фильме, повествующем о жизни в 16-м веке! Могут быть только песни о несчастной любви, конечно, на языке и с тональностью страны, в которой действие происходит... Поклонники world music явно останутся довольны, т.к. на альбоме представлена исконно индийская национальная музыка (не та, что, скажем, звучит в фильме "Танцор Диско"). В этом плане альбом - одна из немногих звуковых дорожек, которую можно слушать в отдельности от фильма. Даже, наверное, не только можно, но и нужно.
 
Exact Audio Copy V0.99 prebeta 5 from 4. May 2009

EAC extraction logfile from 30. June 2010, 23:41

Mychael Danna / Kama Sutra Soundtrack

Used drive : _NEC NR-7900A Adapter: 7 ID: 0

Read mode : SecureUtilize accurate stream : YesDefeat audio cache : YesMake use of C2 pointers : No

Read offset correction : 685Overread into Lead-In and Lead-Out : NoFill up missing offset samples with silence : YesDelete leading and trailing silent blocks : NoNull samples used in CRC calculations : YesUsed interface : Native Win32 interface for Win NT & 2000

Used output format : User Defined EncoderSelected bitrate : 896 kBit/sQuality : HighAdd ID3 tag : NoCommand line compressor : C:\Program Files (x86)\Exact Audio Copy\FLAC\FLAC.EXEAdditional command line options : -8 -V %s

TOC of the extracted CD

Track | Start | Length | Start sector | End sector --------------------------------------------------------- 1 | 0:00.00 | 2:09.17 | 0 | 9691 2 | 2:09.17 | 2:14.32 | 9692 | 19773 3 | 4:23.49 | 0:57.07 | 19774 | 24055 4 | 5:20.56 | 1:44.56 | 24056 | 31911 5 | 7:05.37 | 1:06.33 | 31912 | 36894 6 | 8:11.70 | 0:56.27 | 36895 | 41121 7 | 9:08.22 | 2:11.51 | 41122 | 50997 8 | 11:19.73 | 1:52.60 | 50998 | 59457 9 | 13:12.58 | 2:59.42 | 59458 | 72924 10 | 16:12.25 | 2:55.58 | 72925 | 86107 11 | 19:08.08 | 1:32.74 | 86108 | 93081 12 | 20:41.07 | 2:22.40 | 93082 | 103771 13 | 23:03.47 | 5:30.56 | 103772 | 128577 14 | 28:34.28 | 2:39.28 | 128578 | 140530 15 | 31:13.56 | 1:10.04 | 140531 | 145784 16 | 32:23.60 | 1:23.41 | 145785 | 152050 17 | 33:47.26 | 0:35.36 | 152051 | 154711 18 | 34:22.62 | 2:32.57 | 154712 | 166168 19 | 36:55.44 | 1:56.01 | 166169 | 174869 20 | 38:51.45 | 2:17.67 | 174870 | 185211 21 | 41:09.37 | 4:31.57 | 185212 | 205593 22 | 45:41.19 | 1:44.08 | 205594 | 213401 23 | 47:25.27 | 5:47.25 | 213402 | 239451

Range status and errors

Selected range

Filename C:\Kamasutra-A Tale of Love\Mychael Danna - Kama Sutra Soundtrack.wav

Peak level 99.9 % Range quality 99.9 % Test CRC 7620E1B8 Copy CRC 7620E1B8 Copy OK

No errors occurred

AccurateRip summary

Track 1 accurately ripped (confidence 1) [4B587CDD]Track 2 accurately ripped (confidence 1) [580F459C]Track 3 accurately ripped (confidence 1) [89477B13]Track 4 accurately ripped (confidence 1) [E66AF0EB]Track 5 accurately ripped (confidence 1) [C3B7FC7E]Track 6 accurately ripped (confidence 1) [6F8A3286]Track 7 accurately ripped (confidence 1) [1EE3E319]Track 8 accurately ripped (confidence 1) [F2BC6D19]Track 9 accurately ripped (confidence 1) [57410C55]Track 10 accurately ripped (confidence 1) [BF23FF33]Track 11 accurately ripped (confidence 1) [C8640AEF]Track 12 accurately ripped (confidence 1) [9F27F330]Track 13 accurately ripped (confidence 1) [7742F5B9]Track 14 accurately ripped (confidence 1) [FFBDC450]Track 15 accurately ripped (confidence 1) [06CDD18E]Track 16 accurately ripped (confidence 1) [F1C8FEC8]Track 17 accurately ripped (confidence 1) [7030AD40]Track 18 accurately ripped (confidence 1) [AED65847]Track 19 accurately ripped (confidence 1) [594E16AE]Track 20 accurately ripped (confidence 1) [C1522517]Track 21 accurately ripped (confidence 1) [3FF21638]Track 22 accurately ripped (confidence 1) [4901436E]Track 23 accurately ripped (confidence 1) [3173AF36]

All tracks accurately ripped

End of status report
 
REM GENRE SoundtrackREM DATE 1997REM DISCID 360C7817REM COMMENT "ExactAudioCopy v0.99pb5"PERFORMER "Mychael Danna"TITLE "Kama Sutra Soundtrack"FILE "Mychael Danna - Kama Sutra Soundtrack.flac" WAVE TRACK 01 AUDIO TITLE "Omiya" PERFORMER "Mychael Danna" INDEX 01 00:00:00 TRACK 02 AUDIO TITLE "Maya's Theme" PERFORMER "Mychael Danna" INDEX 00 02:08:56 INDEX 01 02:09:17 TRACK 03 AUDIO TITLE "Maya Takes Revenge" PERFORMER "Mychael Danna" INDEX 00 04:23:13 INDEX 01 04:23:49 TRACK 04 AUDIO TITLE "Aphrodisiac" PERFORMER "Mychael Danna" INDEX 00 05:20:52 INDEX 01 05:20:56 TRACK 05 AUDIO TITLE "Wedding Song" PERFORMER "Mychael Danna" INDEX 00 07:05:02 INDEX 01 07:05:37 TRACK 06 AUDIO TITLE "Jai's Flower" PERFORMER "Mychael Danna" INDEX 00 08:11:34 INDEX 01 08:11:70 TRACK 07 AUDIO TITLE "Eternal Triangle" PERFORMER "Mychael Danna" INDEX 00 09:08:17 INDEX 01 09:08:22 TRACK 08 AUDIO TITLE "Expulsion (Sajan Begha Ghar Aiye Ho)" PERFORMER "Mychael Danna" INDEX 00 11:19:38 INDEX 01 11:19:73 TRACK 09 AUDIO TITLE "All Pure Spirit" PERFORMER "Mychael Danna" INDEX 00 13:12:22 INDEX 01 13:12:58 TRACK 10 AUDIO TITLE "A Jewel Of The Gutter" PERFORMER "Mychael Danna" INDEX 00 16:12:21 INDEX 01 16:12:25 TRACK 11 AUDIO TITLE "Red Hibiscus On Skin" PERFORMER "Mychael Danna" INDEX 00 19:07:47 INDEX 01 19:08:08 TRACK 12 AUDIO TITLE "The Glory Of God Is In You" PERFORMER "Mychael Danna" INDEX 00 20:40:46 INDEX 01 20:41:07 TRACK 13 AUDIO TITLE "Gold Dust Bacchanalia" PERFORMER "Mychael Danna" INDEX 00 23:03:12 INDEX 01 23:03:47 TRACK 14 AUDIO TITLE "Marriage Of The Flying Spirit" PERFORMER "Mychael Danna" INDEX 00 28:33:67 INDEX 01 28:34:28 TRACK 15 AUDIO TITLE "Examining, Examining" PERFORMER "Mychael Danna" INDEX 00 31:13:20 INDEX 01 31:13:56 TRACK 16 AUDIO TITLE "Biki Is Insulted" PERFORMER "Mychael Danna" INDEX 00 32:23:24 INDEX 01 32:23:60 TRACK 17 AUDIO TITLE "Come Paint My Breasts With Sandalwood" PERFORMER "Mychael Danna" INDEX 00 33:46:65 INDEX 01 33:47:26 TRACK 18 AUDIO TITLE "Markings" PERFORMER "Mychael Danna" INDEX 00 34:22:27 INDEX 01 34:22:62 TRACK 19 AUDIO TITLE "A Cry From The Heart" PERFORMER "Mychael Danna" INDEX 00 36:55:40 INDEX 01 36:55:44 TRACK 20 AUDIO TITLE "My Flower" PERFORMER "Mychael Danna" INDEX 00 38:51:10 INDEX 01 38:51:45 TRACK 21 AUDIO TITLE "The Execution" PERFORMER "Mychael Danna" INDEX 00 41:09:01 INDEX 01 41:09:37 TRACK 22 AUDIO TITLE "The Toona Song" PERFORMER "Mychael Danna" INDEX 00 45:40:59 INDEX 01 45:41:19 TRACK 23 AUDIO TITLE "Off To New Horizons Of Love You Go (Ulfat Ki Nayi Manzil Ko Chala)" PERFORMER "Mychael Danna" INDEX 00 47:24:67 INDEX 01 47:25:27


Трекер:  [ 08-Июл-2011 21:45 ]

  

Скачать .torrent

Размер .torrent файла 11 KB


Размер: 281 MB
Хэш (hash) релиза: 98d560bcd0b5d7348c6850955a365ffa32114369

Торренты, похожие на Кама Сутра: история любви Kama Sutra: A Tale of Love скачать торрент

Форум Название Автор Размер S L Добавлен
Саундтреки к фильмам и мультфильмам (mp3) ·· (Score) Кама Сутра: История любви / Kama Sutra: A Tale Of Love (Mychael Danna) - 1007, MP3, 256 Mos 9362528389 MB 0 0 1292268169

22:22

13-Дек-10

Еще никто не оставлял запись к записи скачать торрент Кама Сутра: история любви Kama Sutra: A Tale of Love . Будь первым!

!Обратная связь