Скачать через торрент музыку Kevin Manthei - Invader ZIM: Music from the Animated Series бесплатно без регистрации torrent

Если у вас наблюдаются проблемы со скриншотами, переходом по ссылками, скачиванием торрентов - проблемы в блокировщике рекламы AdBlock. #хорошегоДня!


Статистика раздачи
Размер:  438 MB   |    Зарегистрирован:  6 лет 2 месяца   |    .torrent скачан:  42 раза   |   
Раздают:  1  
   
Загрузка...
 
Автор Сообщение

Galfimbul

avatar Galfimbul


Invader ZIM: Music from the Animated Series




Композитор: Kevin Manthei
Жанр: Score | Soundtrack | Industrial
Год выпуска диска: 2002
Производитель диска: Nickelodeon Inc. BMI

Цитата:

For Promotional Use Only. Not For Sale.
Limited to 100 copies
Аудио кодек: FLAC
Тип рипа: tracks+.cue
Битрейт аудио: ~762 kbps, lossless
Продолжительность: 1:17:50

Треклист:
01 Invader ZIM Main Title 0:39
02 In the Beginning (The Nightmare Begins) 1:53
03 Entering Earth's Atmosphere (The Nightmare Begins) 0:26
04 Bestest Friend (Bestest Friend) 0:47
05 Carnival Nightmares (Bestest Friend) 0:25
06 Harvester ZIM (Dark Harvest) 0:32
07 Dark Harvest Chase (Dark Harvest) 2:14
08 Parent Waltz (Parent Teacher Night) 0:56
09 Parents Crack (Parent Teacher Night) 1:21
10 Bank Robber Chase (Walk of Doom) 1:13
11 Carne Beat (Walk of Doom) 0:18
12 ZIM Loses It (Germs) 1:10
13 Combat Montage (NanoZIM) 2:19
14 Killer Bee (Attack of the Saucer Morons) 1:09
15 Escape on the Pig (Attack of the Saucer Morons) 1:41
16 Building Montage (The Wettening) 1:06
17 Water Park Showdown (The Wettening) 1:15
18 Dib Meets Mentor (Career Day) 0:53
19 Drum n Thing (Battle-Dib) 1:55
20 ZIM Saves Earth (Planet Jackers) 1:27
21 Dib's Piggy Doom (Bad, Bad Rubber Piggy) 0:53
22 GIR Hypnotized (Rise of the Zitboy) 1:27
23 GIR's Circus (Invasion of the Idiot Dog Brain) 0:18
24 House on the Move (Invasion of the Idiot Dog Brain) 1:02
25 Plan Revealed to Dib (A Room with a Moose) 0:39
26 Photos of Shame (A Room with a Moose) 0:13
27 Ultra Peepi Showdown (Hamstergeddon) 2:22
28 Baby Alien Mission (Plague of Babies) 1:07
29 ZIM's Getaway (Plague of Babbies) 0:49
30 Gaz's Mission (Bloaty's Pizza Hog) 1:06
31 Poop Doggy Dog (Door to Door) 0:55
32 Da Dog Visits (Door to Door) 0:49
33 Reveal Da Dog (Door to Door) 0:37
34 Rankles Wrinkle (FBI Warning of Doom) 0:41
35 Kitty Rally (FBI Warning of Doom) 0:31
36 Meats of Evil (Bolognius Maximus) 0:55
37 Angry Gaz (Game Slave) 1:22
38 ZIM Reports In (Battle of the Planets) 1:07
39 Battle of the Planets (Battle of the Planets) 1:38
40 Mysterious Mysteries Theme (Mysterious Mysteries) 1:03
41 ZIM's Escape (Abducted) 1:00
42 Hobo's Theme (HOBO 13) 0:23
43 Gear Fight (HOBO 13) 1:33
44 Dib's Missions (Future Dib) 1:15
45 So Sad (Halloween Spectacular of Spooky Doom) 0:20
46 Scary Gaz (Halloween Spectacular of Spooky Doom) 0:39
47 Chicken Chase (The Sad, Sad Tale of Chickenfoot) 0:52
48 Library Hunt (GIR Goes Crazy and Stuff) 1:20
49 Happy Fun Ball (Walk for Your Lives) 1:16
50 Lice Squad (Lice) 1:10
51 Ghosts (Dib's Wonderful Life of Doom) 0:34
52 It's On! (Dib's Wonderful Life of Doom) 1:11
53 Happy Day? (TAK, The Hideous New Girl) 0:24
54 It's Love (TAK, The Hideous New Girl) 0:43
55 Tak's Theme (TAK, The Hideous New Girl) 1:24
56 One Big Video Game (Backseat Drivers from Beyond the Stars) 2:37
57 Happy Cookie Beast (The Girl Who Cried Gnome) 1:03
58 Foodcourtia (The Frycook What Came from all that Space) 1:17
59 Sizz Chase (The Frycook What Came from all that Space) 2:53
60 Super Waffles (ZIM Eats Waffles) 0:44
61 Next Evil Plan (ZIM Eats Waffles) 0:44
62 Spider Dib (Dibship Rising) 1:16
63 Membrane Tests (Gaz, Taster of Pork) 1:11
64 Curse You!! (Gaz, Taster of Pork) 0:30
65 Gaz and the Shadowhog (Gaz, Taster of Pork) 2:11
66 Aliens in the Sky (Vindicated!) 1:08
67 Willie's Rise to Power (The Voting of the Doomed) 1:16
68 Source Music of Doom (Various Episodes) 2:22
69 Invader ZIM End Credits 0:47
 
Exact Audio Copy V0.99 prebeta 4 from 23. January 2008

EAC extraction logfile from 13. December 2008, 23:34

Kevin Manthei / Invader ZIM - Music from the Animated Series

Used drive : HL-DT-STDVDRAM GSA-4163B Adapter: 0 ID: 0

Read mode : SecureUtilize accurate stream : YesDefeat audio cache : YesMake use of C2 pointers : No

Read offset correction : 667Overread into Lead-In and Lead-Out : NoFill up missing offset samples with silence : YesDelete leading and trailing silent blocks : NoNull samples used in CRC calculations : YesUsed interface : Native Win32 interface for Win NT & 2000Gap handling : Appended to previous track

Used output format : User Defined EncoderSelected bitrate : 128 kBit/sQuality : HighAdd ID3 tag : NoCommand line compressor : C:\Program Files\FLAC\flac.exeAdditional command line options : -V -8 -T "artist=%a" -T "title=%t" -T "album=%g" -T "date=%y" -T "tracknumber=%n" -T "genre=%m" %s

TOC of the extracted CD

Track | Start | Length | Start sector | End sector --------------------------------------------------------- 1 | 0:00.00 | 0:39.39 | 0 | 2963 2 | 0:39.39 | 1:53.44 | 2964 | 11482 3 | 2:33.08 | 0:26.29 | 11483 | 13461 4 | 2:59.37 | 0:47.63 | 13462 | 17049 5 | 3:47.25 | 0:25.54 | 17050 | 18978 6 | 4:13.04 | 0:32.69 | 18979 | 21447 7 | 4:45.73 | 2:14.72 | 21448 | 31569 8 | 7:00.70 | 0:56.32 | 31570 | 35801 9 | 7:57.27 | 1:21.21 | 35802 | 41897 10 | 9:18.48 | 1:13.15 | 41898 | 47387 11 | 10:31.63 | 0:18.28 | 47388 | 48765 12 | 10:50.16 | 1:10.01 | 48766 | 54016 13 | 12:00.17 | 2:19.69 | 54017 | 64510 14 | 14:20.11 | 1:09.46 | 64511 | 69731 15 | 15:29.57 | 1:41.34 | 69732 | 77340 16 | 17:11.16 | 1:06.63 | 77341 | 82353 17 | 18:18.04 | 1:15.71 | 82354 | 88049 18 | 19:34.00 | 0:53.74 | 88050 | 92098 19 | 20:27.74 | 1:55.40 | 92099 | 100763 20 | 22:23.39 | 1:27.03 | 100764 | 107291 21 | 23:50.42 | 0:53.39 | 107292 | 111305 22 | 24:44.06 | 1:27.51 | 111306 | 117881 23 | 26:11.57 | 0:18.72 | 117882 | 119303 24 | 26:30.54 | 1:02.13 | 119304 | 123966 25 | 27:32.67 | 0:39.51 | 123967 | 126942 26 | 28:12.43 | 0:13.27 | 126943 | 127944 27 | 28:25.70 | 2:22.30 | 127945 | 138624 28 | 30:48.25 | 1:07.24 | 138625 | 143673 29 | 31:55.49 | 0:49.67 | 143674 | 147415 30 | 32:45.41 | 1:06.01 | 147416 | 152366 31 | 33:51.42 | 0:55.01 | 152367 | 156492 32 | 34:46.43 | 0:49.06 | 156493 | 160173 33 | 35:35.49 | 0:37.10 | 160174 | 162958 34 | 36:12.59 | 0:41.48 | 162959 | 166081 35 | 36:54.32 | 0:31.19 | 166082 | 168425 36 | 37:25.51 | 0:55.20 | 168426 | 172570 37 | 38:20.71 | 1:22.05 | 172571 | 178725 38 | 39:43.01 | 1:07.55 | 178726 | 183805 39 | 40:50.56 | 1:38.00 | 183806 | 191155 40 | 42:28.56 | 1:03.68 | 191156 | 195948 41 | 43:32.49 | 1:00.53 | 195949 | 200501 42 | 44:33.27 | 0:23.02 | 200502 | 202228 43 | 44:56.29 | 1:33.74 | 202229 | 209277 44 | 46:30.28 | 1:15.55 | 209278 | 214957 45 | 47:46.08 | 0:20.74 | 214958 | 216531 46 | 48:07.07 | 0:39.00 | 216532 | 219456 47 | 48:46.07 | 0:52.29 | 219457 | 223385 48 | 49:38.36 | 1:20.13 | 223386 | 229398 49 | 50:58.49 | 1:16.55 | 229399 | 235153 50 | 52:15.29 | 1:10.20 | 235154 | 240423 51 | 53:25.49 | 0:34.22 | 240424 | 242995 52 | 53:59.71 | 1:11.43 | 242996 | 248363 53 | 55:11.39 | 0:24.36 | 248364 | 250199 54 | 55:36.00 | 0:43.00 | 250200 | 253424 55 | 56:19.00 | 1:24.30 | 253425 | 259754 56 | 57:43.30 | 2:37.39 | 259755 | 271568 57 | 60:20.69 | 1:03.64 | 271569 | 276357 58 | 61:24.58 | 1:17.63 | 276358 | 282195 59 | 62:42.46 | 2:53.37 | 282196 | 295207 60 | 65:36.08 | 0:44.19 | 295208 | 298526 61 | 66:20.27 | 0:44.55 | 298527 | 301881 62 | 67:05.07 | 1:16.29 | 301882 | 307610 63 | 68:21.36 | 1:11.06 | 307611 | 312941 64 | 69:32.42 | 0:30.65 | 312942 | 315256 65 | 70:03.32 | 2:11.38 | 315257 | 325119 66 | 72:14.70 | 1:08.67 | 325120 | 330286 67 | 73:23.62 | 1:16.40 | 330287 | 336026 68 | 74:40.27 | 2:22.00 | 336027 | 346676 69 | 77:02.27 | 0:47.74 | 346677 | 350275

Track 1

Filename C:\Users\James\Desktop\FLAC\Kevin Manthei\Invader ZIM - Music from the Animated Series\01 - Invader ZIM Main Title.wav

Pre-gap length 0:00:02.00

Peak level 89.1 % Track quality 99.7 % Test CRC 70AAF21C Copy CRC 70AAF21C Copy OK

Track 2

Filename C:\Users\James\Desktop\FLAC\Kevin Manthei\Invader ZIM - Music from the Animated Series\02 - In the Beginning (The Nightmare Begins).wav

Peak level 96.5 % Track quality 100.0 % Test CRC 3E642444 Copy CRC 3E642444 Copy OK

Track 3

Filename C:\Users\James\Desktop\FLAC\Kevin Manthei\Invader ZIM - Music from the Animated Series\03 - Entering Earth's Atmosphere (The Nightmare Begins).wav

Peak level 70.7 % Track quality 100.0 % Test CRC B90C2A6D Copy CRC B90C2A6D Copy OK

Track 4

Filename C:\Users\James\Desktop\FLAC\Kevin Manthei\Invader ZIM - Music from the Animated Series\04 - Bestest Friend (Bestest Friend).wav

Peak level 100.0 % Track quality 99.7 % Test CRC BB4598C8 Copy CRC BB4598C8 Copy OK

Track 5

Filename C:\Users\James\Desktop\FLAC\Kevin Manthei\Invader ZIM - Music from the Animated Series\05 - Carnival Nightmares (Bestest Friend).wav

Peak level 70.7 % Track quality 100.0 % Test CRC 94DD616E Copy CRC 94DD616E Copy OK

Track 6

Filename C:\Users\James\Desktop\FLAC\Kevin Manthei\Invader ZIM - Music from the Animated Series\06 - Harvester ZIM (Dark Harvest).wav

Peak level 100.0 % Track quality 100.0 % Test CRC EB2542FC Copy CRC EB2542FC Copy OK

Track 7

Filename C:\Users\James\Desktop\FLAC\Kevin Manthei\Invader ZIM - Music from the Animated Series\07 - Dark Harvest Chase (Dark Harvest).wav

Peak level 100.0 % Track quality 100.0 % Test CRC 089FD299 Copy CRC 089FD299 Copy OK

Track 8

Filename C:\Users\James\Desktop\FLAC\Kevin Manthei\Invader ZIM - Music from the Animated Series\08 - Parent Waltz (Parent Teacher Night).wav

Peak level 100.0 % Track quality 99.8 % Test CRC 34E4F4A3 Copy CRC 34E4F4A3 Copy OK

Track 9

Filename C:\Users\James\Desktop\FLAC\Kevin Manthei\Invader ZIM - Music from the Animated Series\09 - Parents Crack (Parent Teacher Night).wav

Peak level 100.0 % Track quality 100.0 % Test CRC 649A87E4 Copy CRC 649A87E4 Copy OK

Track 10

Filename C:\Users\James\Desktop\FLAC\Kevin Manthei\Invader ZIM - Music from the Animated Series\10 - Bank Robber Chase (Walk of Doom).wav

Peak level 100.0 % Track quality 100.0 % Test CRC 50C3FB5C Copy CRC 50C3FB5C Copy OK

Track 11

Filename C:\Users\James\Desktop\FLAC\Kevin Manthei\Invader ZIM - Music from the Animated Series\11 - Carne Beat (Walk of Doom).wav

Peak level 100.0 % Track quality 100.0 % Test CRC 7B08E36B Copy CRC 7B08E36B Copy OK

Track 12

Filename C:\Users\James\Desktop\FLAC\Kevin Manthei\Invader ZIM - Music from the Animated Series\12 - ZIM Loses It (Germs).wav

Peak level 100.0 % Track quality 100.0 % Test CRC 7C5DAB42 Copy CRC 7C5DAB42 Copy OK

Track 13

Filename C:\Users\James\Desktop\FLAC\Kevin Manthei\Invader ZIM - Music from the Animated Series\13 - Combat Montage (NanoZIM).wav

Peak level 100.0 % Track quality 100.0 % Test CRC 0CFA3274 Copy CRC 0CFA3274 Copy OK

Track 14

Filename C:\Users\James\Desktop\FLAC\Kevin Manthei\Invader ZIM - Music from the Animated Series\14 - Killer Bee (Attack of the Saucer Morons).wav

Peak level 100.0 % Track quality 100.0 % Test CRC E6E7BB5C Copy CRC E6E7BB5C Copy OK

Track 15

Filename C:\Users\James\Desktop\FLAC\Kevin Manthei\Invader ZIM - Music from the Animated Series\15 - Escape on the Pig (Attack of the Saucer Morons).wav

Peak level 100.0 % Track quality 100.0 % Test CRC FD2C491B Copy CRC FD2C491B Copy OK

Track 16

Filename C:\Users\James\Desktop\FLAC\Kevin Manthei\Invader ZIM - Music from the Animated Series\16 - Building Montage (The Wettening).wav

Peak level 100.0 % Track quality 100.0 % Test CRC 1190F4B4 Copy CRC 1190F4B4 Copy OK

Track 17

Filename C:\Users\James\Desktop\FLAC\Kevin Manthei\Invader ZIM - Music from the Animated Series\17 - Water Park Showdown (The Wettening).wav

Peak level 100.0 % Track quality 100.0 % Test CRC 42725AC2 Copy CRC 42725AC2 Copy OK

Track 18

Filename C:\Users\James\Desktop\FLAC\Kevin Manthei\Invader ZIM - Music from the Animated Series\18 - Dib Meets Mentor (Career Day).wav

Peak level 100.0 % Track quality 100.0 % Test CRC CB06A1C4 Copy CRC CB06A1C4 Copy OK

Track 19

Filename C:\Users\James\Desktop\FLAC\Kevin Manthei\Invader ZIM - Music from the Animated Series\19 - Drum n Thing (Battle-Dib).wav

Peak level 100.0 % Track quality 99.9 % Test CRC EC9D52F9 Copy CRC EC9D52F9 Copy OK

Track 20

Filename C:\Users\James\Desktop\FLAC\Kevin Manthei\Invader ZIM - Music from the Animated Series\20 - ZIM Saves Earth (Planet Jackers).wav

Peak level 100.0 % Track quality 100.0 % Test CRC F81D8B9E Copy CRC F81D8B9E Copy OK

Track 21

Filename C:\Users\James\Desktop\FLAC\Kevin Manthei\Invader ZIM - Music from the Animated Series\21 - Dib's Piggy Doom (Bad, Bad Rubber Piggy).wav

Peak level 100.0 % Track quality 100.0 % Test CRC 65C23506 Copy CRC 65C23506 Copy OK

Track 22

Filename C:\Users\James\Desktop\FLAC\Kevin Manthei\Invader ZIM - Music from the Animated Series\22 - GIR Hypnotized (Rise of the Zitboy).wav

Peak level 100.0 % Track quality 99.8 % Test CRC 4308288C Copy CRC 4308288C Copy OK

Track 23

Filename C:\Users\James\Desktop\FLAC\Kevin Manthei\Invader ZIM - Music from the Animated Series\23 - GIR's Circus (Invasion of the Idiot Dog Brain).wav

Peak level 70.7 % Track quality 100.0 % Test CRC 282BFC7B Copy CRC 282BFC7B Copy OK

Track 24

Filename C:\Users\James\Desktop\FLAC\Kevin Manthei\Invader ZIM - Music from the Animated Series\24 - House on the Move (Invasion of the Idiot Dog Brain).wav

Peak level 100.0 % Track quality 100.0 % Test CRC E38D3F5F Copy CRC E38D3F5F Copy OK

Track 25

Filename C:\Users\James\Desktop\FLAC\Kevin Manthei\Invader ZIM - Music from the Animated Series\25 - Plan Revealed to Dib (A Room with a Moose).wav

Peak level 100.0 % Track quality 100.0 % Test CRC F9549225 Copy CRC F9549225 Copy OK

Track 26

Filename C:\Users\James\Desktop\FLAC\Kevin Manthei\Invader ZIM - Music from the Animated Series\26 - Photos of Shame (A Room with a Moose).wav

Peak level 100.0 % Track quality 100.0 % Test CRC AD88821C Copy CRC AD88821C Copy OK

Track 27

Filename C:\Users\James\Desktop\FLAC\Kevin Manthei\Invader ZIM - Music from the Animated Series\27 - Ultra Peepi Showdown (Hamstergeddon).wav

Peak level 100.0 % Track quality 100.0 % Test CRC FB49774D Copy CRC FB49774D Copy OK

Track 28

Filename C:\Users\James\Desktop\FLAC\Kevin Manthei\Invader ZIM - Music from the Animated Series\28 - Baby Alien Mission (Plague of Babies).wav

Peak level 70.3 % Track quality 100.0 % Test CRC 388E68DD Copy CRC 388E68DD Copy OK

Track 29

Filename C:\Users\James\Desktop\FLAC\Kevin Manthei\Invader ZIM - Music from the Animated Series\29 - ZIM's Getaway (Plague of Babbies).wav

Peak level 95.5 % Track quality 100.0 % Test CRC 2A1DAAF2 Copy CRC 2A1DAAF2 Copy OK

Track 30

Filename C:\Users\James\Desktop\FLAC\Kevin Manthei\Invader ZIM - Music from the Animated Series\30 - Gaz's Mission (Bloaty's Pizza Hog).wav

Peak level 100.0 % Track quality 100.0 % Test CRC 973D299B Copy CRC 973D299B Copy OK

Track 31

Filename C:\Users\James\Desktop\FLAC\Kevin Manthei\Invader ZIM - Music from the Animated Series\31 - Poop Doggy Dog (Door to Door).wav

Peak level 100.0 % Track quality 100.0 % Test CRC F334A4C5 Copy CRC F334A4C5 Copy OK

Track 32

Filename C:\Users\James\Desktop\FLAC\Kevin Manthei\Invader ZIM - Music from the Animated Series\32 - Da Dog Visits (Door to Door).wav

Peak level 77.4 % Track quality 100.0 % Test CRC 93EEBF7B Copy CRC 93EEBF7B Copy OK

Track 33

Filename C:\Users\James\Desktop\FLAC\Kevin Manthei\Invader ZIM - Music from the Animated Series\33 - Reveal Da Dog (Door to Door).wav

Peak level 100.0 % Track quality 100.0 % Test CRC DE8E3AC6 Copy CRC DE8E3AC6 Copy OK

Track 34

Filename C:\Users\James\Desktop\FLAC\Kevin Manthei\Invader ZIM - Music from the Animated Series\34 - Rankles Wrinkle (FBI Warning of Doom).wav

Peak level 100.0 % Track quality 100.0 % Test CRC F12B509A Copy CRC F12B509A Copy OK

Track 35

Filename C:\Users\James\Desktop\FLAC\Kevin Manthei\Invader ZIM - Music from the Animated Series\35 - Kitty Rally (FBI Warning of Doom).wav

Peak level 60.2 % Track quality 100.0 % Test CRC 17B38A25 Copy CRC 17B38A25 Copy OK

Track 36

Filename C:\Users\James\Desktop\FLAC\Kevin Manthei\Invader ZIM - Music from the Animated Series\36 - Meats of Evil (Bolognius Maximus).wav

Peak level 100.0 % Track quality 100.0 % Test CRC 5C4C8E97 Copy CRC 5C4C8E97 Copy OK

Track 37

Filename C:\Users\James\Desktop\FLAC\Kevin Manthei\Invader ZIM - Music from the Animated Series\37 - Angry Gaz (Game Slave).wav

Peak level 100.0 % Track quality 100.0 % Test CRC 24B99EDA Copy CRC 24B99EDA Copy OK

Track 38

Filename C:\Users\James\Desktop\FLAC\Kevin Manthei\Invader ZIM - Music from the Animated Series\38 - ZIM Reports In (Battle of the Planets).wav

Peak level 100.0 % Track quality 99.8 % Test CRC 53EB6F60 Copy CRC 53EB6F60 Copy OK

Track 39

Filename C:\Users\James\Desktop\FLAC\Kevin Manthei\Invader ZIM - Music from the Animated Series\39 - Battle of the Planets (Battle of the Planets).wav

Peak level 100.0 % Track quality 100.0 % Test CRC DE944073 Copy CRC DE944073 Copy OK

Track 40

Filename C:\Users\James\Desktop\FLAC\Kevin Manthei\Invader ZIM - Music from the Animated Series\40 - Mysterious Mysteries Theme (Mysterious Mysteries).wav

Peak level 100.0 % Track quality 100.0 % Test CRC D656A4B8 Copy CRC D656A4B8 Copy OK

Track 41

Filename C:\Users\James\Desktop\FLAC\Kevin Manthei\Invader ZIM - Music from the Animated Series\41 - ZIM's Escape (Abducted).wav

Peak level 100.0 % Track quality 100.0 % Test CRC B41D922D Copy CRC B41D922D Copy OK

Track 42

Filename C:\Users\James\Desktop\FLAC\Kevin Manthei\Invader ZIM - Music from the Animated Series\42 - Hobo's Theme (HOBO 13).wav

Peak level 100.0 % Track quality 100.0 % Test CRC B561C965 Copy CRC B561C965 Copy OK

Track 43

Filename C:\Users\James\Desktop\FLAC\Kevin Manthei\Invader ZIM - Music from the Animated Series\43 - Gear Fight (HOBO 13).wav

Peak level 100.0 % Track quality 99.8 % Test CRC A1CA5648 Copy CRC A1CA5648 Copy OK

Track 44

Filename C:\Users\James\Desktop\FLAC\Kevin Manthei\Invader ZIM - Music from the Animated Series\44 - Dib's Missions (Future Dib).wav

Peak level 100.0 % Track quality 99.8 % Test CRC 58B41DC9 Copy CRC 58B41DC9 Copy OK

Track 45

Filename C:\Users\James\Desktop\FLAC\Kevin Manthei\Invader ZIM - Music from the Animated Series\45 - So Sad (Halloween Spectacular of Spooky Doom).wav

Peak level 100.0 % Track quality 100.0 % Test CRC D3B8DCA8 Copy CRC D3B8DCA8 Copy OK

Track 46

Filename C:\Users\James\Desktop\FLAC\Kevin Manthei\Invader ZIM - Music from the Animated Series\46 - Scary Gaz (Halloween Spectacular of Spooky Doom).wav

Peak level 100.0 % Track quality 100.0 % Test CRC ECF046AF Copy CRC ECF046AF Copy OK

Track 47

Filename C:\Users\James\Desktop\FLAC\Kevin Manthei\Invader ZIM - Music from the Animated Series\47 - Chicken Chase (The Sad, Sad Tale of Chickenfoot).wav

Peak level 100.0 % Track quality 100.0 % Test CRC E3ABC249 Copy CRC E3ABC249 Copy OK

Track 48

Filename C:\Users\James\Desktop\FLAC\Kevin Manthei\Invader ZIM - Music from the Animated Series\48 - Library Hunt (GIR Goes Crazy and Stuff).wav

Peak level 100.0 % Track quality 100.0 % Test CRC 4F754876 Copy CRC 4F754876 Copy OK

Track 49

Filename C:\Users\James\Desktop\FLAC\Kevin Manthei\Invader ZIM - Music from the Animated Series\49 - Happy Fun Ball (Walk for Your Lives).wav

Peak level 100.0 % Track quality 100.0 % Test CRC 70EEACF4 Copy CRC 70EEACF4 Copy OK

Track 50

Filename C:\Users\James\Desktop\FLAC\Kevin Manthei\Invader ZIM - Music from the Animated Series\50 - Lice Squad (Lice).wav

Peak level 100.0 % Track quality 100.0 % Test CRC A6657419 Copy CRC A6657419 Copy OK

Track 51

Filename C:\Users\James\Desktop\FLAC\Kevin Manthei\Invader ZIM - Music from the Animated Series\51 - Ghosts (Dib's Wonderful Life of Doom).wav

Peak level 100.0 % Track quality 100.0 % Test CRC AB24005C Copy CRC AB24005C Copy OK

Track 52

Filename C:\Users\James\Desktop\FLAC\Kevin Manthei\Invader ZIM - Music from the Animated Series\52 - It's On! (Dib's Wonderful Life of Doom).wav

Peak level 100.0 % Track quality 100.0 % Test CRC 63F87C51 Copy CRC 63F87C51 Copy OK

Track 53

Filename C:\Users\James\Desktop\FLAC\Kevin Manthei\Invader ZIM - Music from the Animated Series\53 - Happy Day (TAK, The Hideous New Girl).wav

Peak level 100.0 % Track quality 100.0 % Test CRC A798D50C Copy CRC A798D50C Copy OK

Track 54

Filename C:\Users\James\Desktop\FLAC\Kevin Manthei\Invader ZIM - Music from the Animated Series\54 - It's Love (TAK, The Hideous New Girl).wav

Peak level 100.0 % Track quality 100.0 % Test CRC 604F53CE Copy CRC 604F53CE Copy OK

Track 55

Filename C:\Users\James\Desktop\FLAC\Kevin Manthei\Invader ZIM - Music from the Animated Series\55 - Tak's Theme (TAK, The Hideous New Girl).wav

Peak level 100.0 % Track quality 100.0 % Test CRC 42958DEA Copy CRC 42958DEA Copy OK

Track 56

Filename C:\Users\James\Desktop\FLAC\Kevin Manthei\Invader ZIM - Music from the Animated Series\56 - One Big Video Game (Backseat Drivers from Beyond the Stars).wav

Peak level 100.0 % Track quality 100.0 % Test CRC C87DDB0F Copy CRC C87DDB0F Copy OK

Track 57

Filename C:\Users\James\Desktop\FLAC\Kevin Manthei\Invader ZIM - Music from the Animated Series\57 - Happy Cookie Beast (The Girl Who Cried Gnome).wav

Peak level 100.0 % Track quality 100.0 % Test CRC D26D15C4 Copy CRC D26D15C4 Copy OK

Track 58

Filename C:\Users\James\Desktop\FLAC\Kevin Manthei\Invader ZIM - Music from the Animated Series\58 - Foodcourtia (The Frycook What Came from all that Space).wav

Peak level 100.0 % Track quality 100.0 % Test CRC EE392EE3 Copy CRC EE392EE3 Copy OK

Track 59

Filename C:\Users\James\Desktop\FLAC\Kevin Manthei\Invader ZIM - Music from the Animated Series\59 - Sizz Chase (The Frycook What Came from all that Space).wav

Peak level 100.0 % Track quality 100.0 % Test CRC 2BFE408E Copy CRC 2BFE408E Copy OK

Track 60

Filename C:\Users\James\Desktop\FLAC\Kevin Manthei\Invader ZIM - Music from the Animated Series\60 - Super Waffles (ZIM Eats Waffles).wav

Peak level 100.0 % Track quality 100.0 % Test CRC 1F5C68C2 Copy CRC 1F5C68C2 Copy OK

Track 61

Filename C:\Users\James\Desktop\FLAC\Kevin Manthei\Invader ZIM - Music from the Animated Series\61 - Next Evil Plan (ZIM Eats Waffles).wav

Peak level 100.0 % Track quality 100.0 % Test CRC CCFB66BD Copy CRC CCFB66BD Copy OK

Track 62

Filename C:\Users\James\Desktop\FLAC\Kevin Manthei\Invader ZIM - Music from the Animated Series\62 - Spider Dib (Dibship Rising).wav

Peak level 100.0 % Track quality 99.8 % Test CRC A0DECA77 Copy CRC A0DECA77 Copy OK

Track 63

Filename C:\Users\James\Desktop\FLAC\Kevin Manthei\Invader ZIM - Music from the Animated Series\63 - Membrane Tests (Gaz, Taster of Pork).wav

Peak level 100.0 % Track quality 100.0 % Test CRC 995A4E41 Copy CRC 995A4E41 Copy OK

Track 64

Filename C:\Users\James\Desktop\FLAC\Kevin Manthei\Invader ZIM - Music from the Animated Series\64 - Curse You!! (Gaz, Taster of Pork).wav

Peak level 100.0 % Track quality 99.6 % Test CRC E8DAC028 Copy CRC E8DAC028 Copy OK

Track 65

Filename C:\Users\James\Desktop\FLAC\Kevin Manthei\Invader ZIM - Music from the Animated Series\65 - Gaz and the Shadowhog (Gaz, Taster of Pork).wav

Peak level 100.0 % Track quality 99.9 % Test CRC 030F21ED Copy CRC 030F21ED Copy OK

Track 66

Filename C:\Users\James\Desktop\FLAC\Kevin Manthei\Invader ZIM - Music from the Animated Series\66 - Aliens in the Sky (Vindicated!).wav

Peak level 100.0 % Track quality 100.0 % Test CRC F19A8592 Copy CRC F19A8592 Copy OK

Track 67

Filename C:\Users\James\Desktop\FLAC\Kevin Manthei\Invader ZIM - Music from the Animated Series\67 - Willie's Rise to Power (The Voting of the Doomed).wav

Peak level 100.0 % Track quality 100.0 % Test CRC 0877CC91 Copy CRC 0877CC91 Copy OK

Track 68

Filename C:\Users\James\Desktop\FLAC\Kevin Manthei\Invader ZIM - Music from the Animated Series\68 - Source Music of Doom (Various Episodes).wav

Peak level 100.0 % Track quality 100.0 % Test CRC 4E5F0199 Copy CRC 4E5F0199 Copy OK

Track 69

Filename C:\Users\James\Desktop\FLAC\Kevin Manthei\Invader ZIM - Music from the Animated Series\69 - Invader ZIM End Credits.wav

Peak level 100.0 % Track quality 100.0 % Test CRC 81272F94 Copy CRC 81272F94 Copy OK

No errors occurred

End of status report
 
AUDIOCHECKER v2.0 beta (build 457) - by Dester - opdester@freemail.hu~~~~~~~~~~~~~~~~~~~~~~~~~~~~~~~~~~-=== DO NOT EDIT THIS FILE! ===-

Path: ...\Kevin Manthei - Invader ZIM - Music from the Animated Series

01 -=- 01 - Invader ZIM Main Title.flac -=- CDDA (100%)02 -=- 02 - In the Beginning (The Nightmare Begins).flac -=- CDDA (99%)03 -=- 03 - Entering Earth's Atmosphere (The Nightmare Begins).flac -=- CDDA (100%)04 -=- 04 - Bestest Friend (Bestest Friend).flac -=- CDDA (100%)05 -=- 05 - Carnival Nightmares (Bestest Friend).flac -=- CDDA (100%)06 -=- 06 - Harvester ZIM (Dark Harvest).flac -=- CDDA (100%)07 -=- 07 - Dark Harvest Chase (Dark Harvest).flac -=- CDDA (100%)08 -=- 08 - Parent Waltz (Parent Teacher Night).flac -=- CDDA (100%)09 -=- 09 - Parents Crack (Parent Teacher Night).flac -=- CDDA (100%)10 -=- 10 - Bank Robber Chase (Walk of Doom).flac -=- CDDA (100%)11 -=- 11 - Carne Beat (Walk of Doom).flac -=- CDDA (100%)12 -=- 12 - ZIM Loses It (Germs).flac -=- CDDA (43%)13 -=- 13 - Combat Montage (NanoZIM).flac -=- CDDA (100%)14 -=- 14 - Killer Bee (Attack of the Saucer Morons).flac -=- CDDA (100%)15 -=- 15 - Escape on the Pig (Attack of the Saucer Morons).flac -=- CDDA (100%)16 -=- 16 - Building Montage (The Wettening).flac -=- CDDA (100%)17 -=- 17 - Water Park Showdown (The Wettening).flac -=- CDDA (100%)18 -=- 18 - Dib Meets Mentor (Career Day).flac -=- ERROR19 -=- 19 - Drum n Thing (Battle-Dib).flac -=- CDDA (100%)20 -=- 20 - ZIM Saves Earth (Planet Jackers).flac -=- CDDA (100%)21 -=- 21 - Dib's Piggy Doom (Bad, Bad Rubber Piggy).flac -=- CDDA (100%)22 -=- 22 - GIR Hypnotized (Rise of the Zitboy).flac -=- CDDA (76%)23 -=- 23 - GIR's Circus (Invasion of the Idiot Dog Brain).flac -=- CDDA (100%)24 -=- 24 - House on the Move (Invasion of the Idiot Dog Brain).flac -=- CDDA (100%)25 -=- 25 - Plan Revealed to Dib (A Room with a Moose).flac -=- CDDA (100%)26 -=- 26 - Photos of Shame (A Room with a Moose).flac -=- CDDA (100%)27 -=- 27 - Ultra Peepi Showdown (Hamstergeddon).flac -=- CDDA (100%)28 -=- 28 - Baby Alien Mission (Plague of Babies).flac -=- CDDA (49%)29 -=- 29 - ZIM's Getaway (Plague of Babbies).flac -=- CDDA (100%)30 -=- 30 - Gaz's Mission (Bloaty's Pizza Hog).flac -=- CDDA (49%)31 -=- 31 - Poop Doggy Dog (Door to Door).flac -=- CDDA (100%)32 -=- 32 - Da Dog Visits (Door to Door).flac -=- CDDA (92%)33 -=- 33 - Reveal Da Dog (Door to Door).flac -=- CDDA (100%)34 -=- 34 - Rankles Wrinkle (FBI Warning of Doom).flac -=- ERROR35 -=- 35 - Kitty Rally (FBI Warning of Doom).flac -=- CDDA (100%)36 -=- 36 - Meats of Evil (Bolognius Maximus).flac -=- CDDA (99%)37 -=- 37 - Angry Gaz (Game Slave).flac -=- CDDA (100%)38 -=- 38 - ZIM Reports In (Battle of the Planets).flac -=- CDDA (100%)39 -=- 39 - Battle of the Planets (Battle of the Planets).flac -=- CDDA (100%)40 -=- 40 - Mysterious Mysteries Theme (Mysterious Mysteries).flac -=- CDDA (99%)41 -=- 41 - ZIM's Escape (Abducted).flac -=- CDDA (99%)42 -=- 42 - Hobo's Theme (HOBO 13).flac -=- CDDA (100%)43 -=- 43 - Gear Fight (HOBO 13).flac -=- CDDA (100%)44 -=- 44 - Dib's Missions (Future Dib).flac -=- CDDA (100%)45 -=- 45 - So Sad (Halloween Spectacular of Spooky Doom).flac -=- ERROR46 -=- 46 - Scary Gaz (Halloween Spectacular of Spooky Doom).flac -=- CDDA (100%)47 -=- 47 - Chicken Chase (The Sad, Sad Tale of Chickenfoot).flac -=- CDDA (85%)48 -=- 48 - Library Hunt (GIR Goes Crazy and Stuff).flac -=- CDDA (100%)49 -=- 49 - Happy Fun Ball (Walk for Your Lives).flac -=- CDDA (100%)50 -=- 50 - Lice Squad (Lice).flac -=- CDDA (100%)51 -=- 51 - Ghosts (Dib's Wonderful Life of Doom).flac -=- CDDA (42%)52 -=- 52 - It's On! (Dib's Wonderful Life of Doom).flac -=- CDDA (99%)53 -=- 53 - Happy Day (TAK, The Hideous New Girl).flac -=- CDDA (100%)54 -=- 54 - It's Love (TAK, The Hideous New Girl).flac -=- CDDA (100%)55 -=- 55 - Tak's Theme (TAK, The Hideous New Girl).flac -=- CDDA (100%)56 -=- 56 - One Big Video Game (Backseat Drivers from Beyond the Stars).flac -=- CDDA (100%)57 -=- 57 - Happy Cookie Beast (The Girl Who Cried Gnome).flac -=- CDDA (100%)58 -=- 58 - Foodcourtia (The Frycook What Came from all that Space).flac -=- CDDA (100%)59 -=- 59 - Sizz Chase (The Frycook What Came from all that Space).flac -=- CDDA (100%)60 -=- 60 - Super Waffles (ZIM Eats Waffles).flac -=- CDDA (100%)61 -=- 61 - Next Evil Plan (ZIM Eats Waffles).flac -=- CDDA (43%)62 -=- 62 - Spider Dib (Dibship Rising).flac -=- CDDA (99%)63 -=- 63 - Membrane Tests (Gaz, Taster of Pork).flac -=- CDDA (100%)64 -=- 64 - Curse You!! (Gaz, Taster of Pork).flac -=- CDDA (100%)65 -=- 65 - Gaz and the Shadowhog (Gaz, Taster of Pork).flac -=- CDDA (100%)66 -=- 66 - Aliens in the Sky (Vindicated!).flac -=- CDDA (100%)67 -=- 67 - Willie's Rise to Power (The Voting of the Doomed).flac -=- CDDA (100%)68 -=- 68 - Source Music of Doom (Various Episodes).flac -=- CDDA (100%)69 -=- 69 - Invader ZIM End Credits.flac -=- CDDA (100%)

Summary 95,05% CDDA

174097476
thefalconer за редкий диск! сканы сделаны по моей просьбе
As far as I know, this is the only copy of this that exists on the web. If I remember correctly, this was 1 of only 100 produced. So basically this is very rare, and near impossible to find. Feel free to correct me if I'm wrong. I've searched all over for this album and cannot find it anywhere.


Трекер:  [ 08-Июл-2011 21:46 ]

  

Скачать .torrent

Размер .torrent файла 23 KB


Размер: 438 MB
Хэш (hash) релиза: c81c407e99efcb3abb5b8755183b777dd2f5341e

Еще никто не оставлял запись к записи скачать торрент Kevin Manthei - Invader ZIM: Music from the Animated Series . Будь первым!

!Обратная связь