Скачать через торрент музыку Ограбление по-итальянски The Italian Job бесплатно без регистрации torrent

Если у вас наблюдаются проблемы со скриншотами, переходом по ссылками, скачиванием торрентов - проблемы в блокировщике рекламы AdBlock. #хорошегоДня!


Статистика раздачи
Размер:  230 MB   |    Зарегистрирован:  6 лет 2 месяца   |    .torrent скачан:  56 раз   |   
Раздают:  1  
   
Загрузка...
 
Автор Сообщение

Galfimbul

avatar Galfimbul


Ограбление по-итальянски / The Italian Job

Жанр: Score
Композитор: John Powell
Год выпуска диска: 2003
Производитель диска: Varese Sarabande
Аудио кодек: FLAC
Тип рипа: tracks+.cue
Битрейт аудио: lossless
Продолжительность: 00:42:26

01 - Opening Titles (02:06)
02 - The Italian Job (01:48)
03 - Venice Gold Heist (04:41)
04 - Boat Chase (04:47)
05 - Mourning John (01:05)
06 - Planning The Heist (02:50)
07 - Pawning The Gold (01:57)
08 - Cable Chick (02:37)
09 - Getting The Axe (02:17)
10 - The Devil Inside (01:52)
11 - Bitter Suite (01:59)
12 - The New Plan (05:09)
13 - Tunnel Run (02:13)
14 - Chopper Chase/Face-Off (02:59)
15 - Golden (04:06)

Источник: what.cd
 
X Lossless Decoder version 20080926 (93.3)

XLD extraction logfile from 2009-01-03 22:36:40 -0500

John Powell / The Italian Job

Used drive : PIONEER DVD-RW DVR-112 (revision 1.21)

Use cdparanoia mode : YES (CDParanoia III 10.2 engine)Disable audio cache : OK for the drive with cache less than 2750KBMake use of C2 pointers : NORead offset correction : 48Max retry count : 100

TOC of the extracted CD Track | Start | Length | Start sector | End sector --------------------------------------------------------- 1 | 00:00:00 | 02:05:67 | 0 | 9441 2 | 02:05:67 | 01:48:20 | 9442 | 17561 3 | 03:54:12 | 04:40:52 | 17562 | 38613 4 | 08:34:64 | 04:47:29 | 38614 | 60167 5 | 13:22:18 | 01:04:59 | 60168 | 65026 6 | 14:27:02 | 02:50:28 | 65027 | 77804 7 | 17:17:30 | 01:57:14 | 77805 | 86593 8 | 19:14:44 | 02:37:09 | 86594 | 98377 9 | 21:51:53 | 02:16:68 | 98378 | 108645 10 | 24:08:46 | 01:52:18 | 108646 | 117063 11 | 26:00:64 | 01:59:24 | 117064 | 126012 12 | 28:00:13 | 05:08:42 | 126013 | 149154 13 | 33:08:55 | 02:13:36 | 149155 | 159165 14 | 35:22:16 | 02:58:48 | 159166 | 172563 15 | 38:20:64 | 04:05:68 | 172564 | 191006

Track 01 Filename : /Users/trev/Desktop/ripped/01 - Opening Titles.flac

CRC32 hash (test run) : 50A468A7 CRC32 hash : 50A468A7 CRC32 hash (skip zero) : A4B8BC7C AccurateRip signature : 5D2A248A ->Accurately ripped! (confidence 6) Statistics Read error : 0 Skipped (treated as error) : 0 Edge jitter error (maybe fixed) : 0 Atom jitter error (maybe fixed) : 0 Drift error (maybe fixed) : 0 Dropped bytes error (maybe fixed) : 0 Duplicated bytes error (maybe fixed) : 0 Inconsistency in error sectors : 0

Track 02 Filename : /Users/trev/Desktop/ripped/02 - The Italian Job.flac

CRC32 hash (test run) : A9250A4D CRC32 hash : A9250A4D CRC32 hash (skip zero) : 84A85091 AccurateRip signature : 8D2FC883 ->Accurately ripped! (confidence 6) Statistics Read error : 0 Skipped (treated as error) : 0 Edge jitter error (maybe fixed) : 0 Atom jitter error (maybe fixed) : 0 Drift error (maybe fixed) : 0 Dropped bytes error (maybe fixed) : 0 Duplicated bytes error (maybe fixed) : 0 Inconsistency in error sectors : 0

Track 03 Filename : /Users/trev/Desktop/ripped/03 - Venice Gold Heist.flac

CRC32 hash (test run) : DEF8BB4D CRC32 hash : DEF8BB4D CRC32 hash (skip zero) : A86AB156 AccurateRip signature : EB90A61B ->Accurately ripped! (confidence 6) Statistics Read error : 0 Skipped (treated as error) : 0 Edge jitter error (maybe fixed) : 0 Atom jitter error (maybe fixed) : 7 Drift error (maybe fixed) : 0 Dropped bytes error (maybe fixed) : 0 Duplicated bytes error (maybe fixed) : 0 Inconsistency in error sectors : 0

Track 04 Filename : /Users/trev/Desktop/ripped/04 - Boat Chase.flac

CRC32 hash (test run) : B0541266 CRC32 hash : B0541266 CRC32 hash (skip zero) : 43265069 AccurateRip signature : 69C587F9 ->Accurately ripped! (confidence 6) Statistics Read error : 0 Skipped (treated as error) : 0 Edge jitter error (maybe fixed) : 0 Atom jitter error (maybe fixed) : 0 Drift error (maybe fixed) : 0 Dropped bytes error (maybe fixed) : 0 Duplicated bytes error (maybe fixed) : 0 Inconsistency in error sectors : 0

Track 05 Filename : /Users/trev/Desktop/ripped/05 - Mourning John.flac

CRC32 hash (test run) : F500EB70 CRC32 hash : F500EB70 CRC32 hash (skip zero) : B0B17DCC AccurateRip signature : 9AFBFCDE ->Accurately ripped! (confidence 6) Statistics Read error : 0 Skipped (treated as error) : 0 Edge jitter error (maybe fixed) : 0 Atom jitter error (maybe fixed) : 0 Drift error (maybe fixed) : 0 Dropped bytes error (maybe fixed) : 0 Duplicated bytes error (maybe fixed) : 0 Inconsistency in error sectors : 0

Track 06 Filename : /Users/trev/Desktop/ripped/06 - Planning The Heist.flac

CRC32 hash (test run) : D4623C8E CRC32 hash : D4623C8E CRC32 hash (skip zero) : 36BB142B AccurateRip signature : 1FE355B8 ->Accurately ripped! (confidence 6) Statistics Read error : 0 Skipped (treated as error) : 0 Edge jitter error (maybe fixed) : 0 Atom jitter error (maybe fixed) : 0 Drift error (maybe fixed) : 0 Dropped bytes error (maybe fixed) : 0 Duplicated bytes error (maybe fixed) : 0 Inconsistency in error sectors : 0

Track 07 Filename : /Users/trev/Desktop/ripped/07 - Pawning The Gold.flac

CRC32 hash (test run) : D37DB896 CRC32 hash : D37DB896 CRC32 hash (skip zero) : D5F3292F AccurateRip signature : 36B6DCAD ->Accurately ripped! (confidence 6) Statistics Read error : 0 Skipped (treated as error) : 0 Edge jitter error (maybe fixed) : 0 Atom jitter error (maybe fixed) : 0 Drift error (maybe fixed) : 0 Dropped bytes error (maybe fixed) : 0 Duplicated bytes error (maybe fixed) : 0 Inconsistency in error sectors : 0

Track 08 Filename : /Users/trev/Desktop/ripped/08 - Cable Chick.flac

CRC32 hash (test run) : F205578F CRC32 hash : F205578F CRC32 hash (skip zero) : C484C821 AccurateRip signature : 4DB70AB5 ->Accurately ripped! (confidence 6) Statistics Read error : 0 Skipped (treated as error) : 0 Edge jitter error (maybe fixed) : 0 Atom jitter error (maybe fixed) : 0 Drift error (maybe fixed) : 0 Dropped bytes error (maybe fixed) : 0 Duplicated bytes error (maybe fixed) : 0 Inconsistency in error sectors : 0

Track 09 Filename : /Users/trev/Desktop/ripped/09 - Getting The Axe.flac

CRC32 hash (test run) : CAF6824A CRC32 hash : CAF6824A CRC32 hash (skip zero) : 148AC248 AccurateRip signature : D98F44FB ->Accurately ripped! (confidence 6) Statistics Read error : 0 Skipped (treated as error) : 0 Edge jitter error (maybe fixed) : 0 Atom jitter error (maybe fixed) : 0 Drift error (maybe fixed) : 0 Dropped bytes error (maybe fixed) : 0 Duplicated bytes error (maybe fixed) : 0 Inconsistency in error sectors : 0

Track 10 Filename : /Users/trev/Desktop/ripped/10 - The Devil Inside.flac

CRC32 hash (test run) : AF3352F7 CRC32 hash : AF3352F7 CRC32 hash (skip zero) : 88B3795E AccurateRip signature : 753A7D32 ->Accurately ripped! (confidence 6) Statistics Read error : 0 Skipped (treated as error) : 0 Edge jitter error (maybe fixed) : 0 Atom jitter error (maybe fixed) : 0 Drift error (maybe fixed) : 0 Dropped bytes error (maybe fixed) : 0 Duplicated bytes error (maybe fixed) : 0 Inconsistency in error sectors : 0

Track 11 Filename : /Users/trev/Desktop/ripped/11 - Bitter Suite.flac

CRC32 hash (test run) : D21B9442 CRC32 hash : D21B9442 CRC32 hash (skip zero) : 3643EC27 AccurateRip signature : 8F4EED1B ->Accurately ripped! (confidence 6) Statistics Read error : 0 Skipped (treated as error) : 0 Edge jitter error (maybe fixed) : 0 Atom jitter error (maybe fixed) : 0 Drift error (maybe fixed) : 0 Dropped bytes error (maybe fixed) : 0 Duplicated bytes error (maybe fixed) : 0 Inconsistency in error sectors : 0

Track 12 Filename : /Users/trev/Desktop/ripped/12 - The New Plan.flac

CRC32 hash (test run) : 37DCDF9F CRC32 hash : 37DCDF9F CRC32 hash (skip zero) : 510EB0A6 AccurateRip signature : EF42295A ->Accurately ripped! (confidence 6) Statistics Read error : 0 Skipped (treated as error) : 0 Edge jitter error (maybe fixed) : 0 Atom jitter error (maybe fixed) : 0 Drift error (maybe fixed) : 0 Dropped bytes error (maybe fixed) : 0 Duplicated bytes error (maybe fixed) : 0 Inconsistency in error sectors : 0

Track 13 Filename : /Users/trev/Desktop/ripped/13 - Tunnel Run.flac

CRC32 hash (test run) : 27B66241 CRC32 hash : 27B66241 CRC32 hash (skip zero) : 888B1DF5 AccurateRip signature : 67EBDA37 ->Accurately ripped! (confidence 6) Statistics Read error : 0 Skipped (treated as error) : 0 Edge jitter error (maybe fixed) : 0 Atom jitter error (maybe fixed) : 0 Drift error (maybe fixed) : 0 Dropped bytes error (maybe fixed) : 0 Duplicated bytes error (maybe fixed) : 0 Inconsistency in error sectors : 0

Track 14 Filename : /Users/trev/Desktop/ripped/14 - Chopper Chase/Face-Off.flac

CRC32 hash (test run) : 10EC0DC5 CRC32 hash : 10EC0DC5 CRC32 hash (skip zero) : 8A7CE105 AccurateRip signature : DAE64AF7 ->Accurately ripped! (confidence 6) Statistics Read error : 0 Skipped (treated as error) : 0 Edge jitter error (maybe fixed) : 0 Atom jitter error (maybe fixed) : 0 Drift error (maybe fixed) : 0 Dropped bytes error (maybe fixed) : 0 Duplicated bytes error (maybe fixed) : 0 Inconsistency in error sectors : 0

Track 15 Filename : /Users/trev/Desktop/ripped/15 - Golden.flac

CRC32 hash (test run) : 75CBECD2 CRC32 hash : 75CBECD2 CRC32 hash (skip zero) : C1AFD124 AccurateRip signature : 5394677F ->Accurately ripped! (confidence 6) Statistics Read error : 0 Skipped (treated as error) : 0 Edge jitter error (maybe fixed) : 0 Atom jitter error (maybe fixed) : 0 Drift error (maybe fixed) : 0 Dropped bytes error (maybe fixed) : 0 Duplicated bytes error (maybe fixed) : 0 Inconsistency in error sectors : 0

No errors occurred

End of status report
 
TITLE "The Italian Job"PERFORMER "John Powell"REM GENRE "Soundtrack"REM DATE 2003FILE "01 - Opening Titles.wav" WAVE TRACK 01 AUDIO TITLE "Opening Titles" INDEX 01 00:00:00FILE "02 - The Italian Job.wav" WAVE TRACK 02 AUDIO TITLE "The Italian Job" INDEX 01 00:00:00FILE "03 - Venice Gold Heist.wav" WAVE TRACK 03 AUDIO TITLE "Venice Gold Heist" INDEX 01 00:00:00FILE "04 - Boat Chase.wav" WAVE TRACK 04 AUDIO TITLE "Boat Chase" INDEX 01 00:00:00FILE "05 - Mourning John.wav" WAVE TRACK 05 AUDIO TITLE "Mourning John" INDEX 01 00:00:00FILE "06 - Planning The Heist.wav" WAVE TRACK 06 AUDIO TITLE "Planning The Heist" INDEX 01 00:00:00FILE "07 - Pawning The Gold.wav" WAVE TRACK 07 AUDIO TITLE "Pawning The Gold" INDEX 01 00:00:00FILE "08 - Cable Chick.wav" WAVE TRACK 08 AUDIO TITLE "Cable Chick" INDEX 01 00:00:00FILE "09 - Getting The Axe.wav" WAVE TRACK 09 AUDIO TITLE "Getting The Axe" INDEX 01 00:00:00FILE "10 - The Devil Inside.wav" WAVE TRACK 10 AUDIO TITLE "The Devil Inside" INDEX 01 00:00:00FILE "11 - Bitter Suite.wav" WAVE TRACK 11 AUDIO TITLE "Bitter Suite" INDEX 01 00:00:00FILE "12 - The New Plan.wav" WAVE TRACK 12 AUDIO TITLE "The New Plan" INDEX 01 00:00:00FILE "13 - Tunnel Run.wav" WAVE TRACK 13 AUDIO TITLE "Tunnel Run" INDEX 01 00:00:00FILE "14 - Chopper Chase - Face-Off.wav" WAVE TRACK 14 AUDIO TITLE "Chopper Chase/Face-Off" INDEX 01 00:00:00FILE "15 - Golden.wav" WAVE TRACK 15 AUDIO TITLE "Golden" INDEX 01 00:00:00



Трекер:  [ 08-Июл-2011 21:46 ]

  

Скачать .torrent

Размер .torrent файла 19 KB


Размер: 230 MB
Хэш (hash) релиза: f76d48ce2473542a22a975c6698b8788482d0d98

Торренты, похожие на Ограбление по-итальянски The Italian Job скачать торрент

Форум Название Автор Размер S L Добавлен
Саундтреки ·· (Score) Ограбление по-итальянски / The Italian Job (by Quincy Jones) - 2000, MP3, 320 kbps _N_ 6770434165 MB 0 0 1341660720

14:32

7-Июл-12

Саундтреки к фильмам и мультфильмам (mp3) ·· Ограбление по-итальянски / The Italian Job - 2003, MP3 (tracks), 320 kbps xMARCHELLOx 10259557398 MB 0 0 1292268119

22:21

13-Дек-10

Еще никто не оставлял запись к записи скачать торрент Ограбление по-итальянски The Italian Job . Будь первым!

!Обратная связь