Скачать через торрент музыку Душа мира Anima Mundi бесплатно без регистрации torrent

Если у вас наблюдаются проблемы со скриншотами, переходом по ссылками, скачиванием торрентов - проблемы в блокировщике рекламы AdBlock. #хорошегоДня!


Статистика раздачи
Размер:  168 MB   |    Зарегистрирован:  6 лет 2 месяца   |    .torrent скачан:  32 раза   |   
Раздают:  1  
   
Загрузка...
 
Автор Сообщение

Galfimbul

avatar Galfimbul


Душа мира / Anima Mundi

Жанр: Score, Chamber
Год выпуска диска: 1993
Производитель диска: Россия
Аудио кодек: FLAC
Тип рипа: image+.cue
Битрейт аудио: lossless
Продолжительность: 00:28:56
Источник: оригинальный диск
Трэклист:
01. The Journey [0:01:51.10]
02. The Ark [0:04:35.24]
03. The Garden [0:04:38.55]
04. The Beginning [0:04:09.17]
05. Living Waters [0:03:53.17]
06. Perpetual Motion [0:05:36.74]
07. The Witness [0:04:11.32]
 
Exact Audio Copy V0.99 prebeta 4 from 23. January 2008

EAC extraction logfile from 8. April 2010, 7:16

Philip Glass / Anima Mundi

Used drive : PLEXTOR DVDR PX-800A Adapter: 3 ID: 0

Read mode : SecureUtilize accurate stream : YesDefeat audio cache : YesMake use of C2 pointers : No

Read offset correction : 48Overread into Lead-In and Lead-Out : NoFill up missing offset samples with silence : YesDelete leading and trailing silent blocks : NoNull samples used in CRC calculations : YesUsed interface : Installed external ASPI interface

Used output format : Internal WAV RoutinesSample format : 44.100 Hz; 16 Bit; Stereo

TOC of the extracted CD

Track | Start | Length | Start sector | End sector --------------------------------------------------------- 1 | 0:00.00 | 1:51.10 | 0 | 8334 2 | 1:51.10 | 4:35.24 | 8335 | 28983 3 | 6:26.34 | 4:38.55 | 28984 | 49888 4 | 11:05.14 | 4:09.17 | 49889 | 68580 5 | 15:14.31 | 3:53.17 | 68581 | 86072 6 | 19:07.48 | 5:36.74 | 86073 | 111346 7 | 24:44.47 | 4:11.32 | 111347 | 130203

Range status and errors

Selected range

Filename D:\SSKAIN\Philip Glass - Anima Mundi (soundtrack) - 1993\Philip Glass - Anima Mundi.wav

Peak level 90.7 % Range quality 99.9 % Test CRC A8D04FD2 Copy CRC A8D04FD2 Copy OK

No errors occurred

AccurateRip summary

Track 1 not present in databaseTrack 2 not present in databaseTrack 3 not present in databaseTrack 4 not present in databaseTrack 5 not present in databaseTrack 6 not present in databaseTrack 7 not present in database

None of the tracks are present in the AccurateRip database

End of status report


Трекер:  [ 08-Июл-2011 21:48 ]

  

Скачать .torrent

Размер .torrent файла 14 KB


Размер: 168 MB
Хэш (hash) релиза: ea9805eba9ca0be07002ec61d4d2b394e77745f9

Еще никто не оставлял запись к записи скачать торрент Душа мира Anima Mundi . Будь первым!

!Обратная связь