Скачать через торрент музыку Mission Impossible Миссия Невыполнима - Music From And Inspired By The Motion Picture - 1996, FLAC бесплатно без регистрации torrent

Если у вас наблюдаются проблемы со скриншотами, переходом по ссылками, скачиванием торрентов - проблемы в блокировщике рекламы AdBlock. #хорошегоДня!


Статистика раздачи
Размер:  496 MB   |    Зарегистрирован:  6 лет 3 месяца   |    .torrent скачан:  39 раз   |   
Раздают:  1  
   
Загрузка...
 
Автор Сообщение

Galfimbul

avatar Galfimbul


Mission Impossible / Миссия Невыполнима - Music From And Inspired By The Motion Picture

Жанр: Soundtrack/Pop/Rock
Год выпуска диска: 1996
Производитель диска: Germany
Аудио кодек: FLAC
Тип рипа: image+.cue
Битрейт аудио: lossless
Продолжительность: 64 min

С РАЗДАЧИ УШЕЛ СОВСЕМ!!! РАЗДАВАЙТЕ КАК МОЖНО ДОЛЬШЕ!!!

Music From And Inspired By The Motion Picture:

01. Adam Clayton & Larry Mullen - Theme From Mission: Impossible
02. Massive Attack - Spying Glass*
03. Pulp - I Spy*
04. Danny Elfman - Impossible Mission
05. Bjork - Headphones*
06. Skunk Anansie - Weak*
07. Longpigs - On & On*
08. Danny Elfman - Claire
09. The Cranberries - Dreams
10. Gavin Friday - You, Me And World War III*
11. Salt - So*
12. Danny Elfman - Trouble
13. Nicolette - No Government*
14. Cast - Alright*
15. Adam Clayton & Larry Mullen - Mission: Impossible Theme (Mission Accomplished)*


* These tracks are not contained in the movie
 
Exact Audio Copy V0.99 prebeta 5 from 4. May 2009

EAC extraction logfile from 30. June 2009, 19:59

Various Artists / Mission Impossible

Used drive : ASUS DRW-1608P Adapter: 2 ID: 0

Read mode : SecureUtilize accurate stream : YesDefeat audio cache : YesMake use of C2 pointers : No

Read offset correction : 48Overread into Lead-In and Lead-Out : NoFill up missing offset samples with silence : YesDelete leading and trailing silent blocks : NoNull samples used in CRC calculations : YesUsed interface : Native Win32 interface for Win NT & 2000

Used output format : User Defined EncoderSelected bitrate : 1024 kBit/sQuality : HighAdd ID3 tag : NoCommand line compressor : C:\Program Files (x86)\FLAC\flac.exeAdditional command line options : -5 -V -T "ARTIST=%a" -T "TITLE=%t" -T "ALBUM=%g" -T "DATE=%y" -T "TRACKNUMBER=%n" -T "GENRE=%m" -T "COMMENT=EAC FLAC -5" %s

TOC of the extracted CD

Track | Start | Length | Start sector | End sector --------------------------------------------------------- 1 | 0:00.00 | 3:28.33 | 0 | 15632 2 | 3:28.33 | 5:21.67 | 15633 | 39774 3 | 8:50.25 | 5:56.25 | 39775 | 66499 4 | 14:46.50 | 5:35.45 | 66500 | 91669 5 | 20:22.20 | 5:41.35 | 91670 | 117279 6 | 26:03.55 | 3:31.63 | 117280 | 133167 7 | 29:35.43 | 4:10.57 | 133168 | 151974 8 | 33:46.25 | 2:55.58 | 151975 | 165157 9 | 36:42.08 | 4:13.60 | 165158 | 184192 10 | 40:55.68 | 4:28.67 | 184193 | 204359 11 | 45:24.60 | 3:34.13 | 204360 | 220422 12 | 48:58.73 | 3:33.02 | 220423 | 236399 13 | 52:32.00 | 5:32.00 | 236400 | 261299 14 | 58:04.00 | 3:36.33 | 261300 | 277532 15 | 61:40.33 | 3:05.42 | 277533 | 291449

Range status and errors

Selected range

Filename F:\Mission Impossible - OST\Various Artists - Mission Impossible.wav

Peak level 100.0 % Range quality 100.0 % Test CRC CD8E0F7D Copy CRC CD8E0F7D Copy OK

No errors occurred

AccurateRip summary

Track 1 accurately ripped (confidence 21) [43B7754E]Track 2 accurately ripped (confidence 20) [5BC67632]Track 3 accurately ripped (confidence 22) [92EAEC5A]Track 4 accurately ripped (confidence 21) [A9D9FAFA]Track 5 accurately ripped (confidence 21) [8904419E]Track 6 accurately ripped (confidence 21) [D6F461F4]Track 7 accurately ripped (confidence 21) [CF8D2A27]Track 8 accurately ripped (confidence 20) [11BEFC36]Track 9 accurately ripped (confidence 20) [4D494DD0]Track 10 accurately ripped (confidence 20) [8FE665FE]Track 11 accurately ripped (confidence 19) [BB07E0FF]Track 12 accurately ripped (confidence 21) [61E0DD31]Track 13 accurately ripped (confidence 21) [6226847D]Track 14 accurately ripped (confidence 20) [0D0B4691]Track 15 accurately ripped (confidence 22) [E2449D22]

All tracks accurately ripped

End of status report
СКАНЫ ВНУТРИ!!!

Трекер:  [ 08-Июл-2011 21:53 ]

  

Скачать .torrent

Размер .torrent файла 20 KB


Размер: 496 MB
Хэш (hash) релиза: 99281b6e3b6df9b9d311d39f64ed326ca7340244

Еще никто не оставлял запись к записи скачать торрент Mission Impossible Миссия Невыполнима - Music From And Inspired By The Motion Picture - 1996, FLAC . Будь первым!

!Обратная связь