Скачать через торрент музыку Лузеры Хор бесплатно без регистрации torrent

Если у вас наблюдаются проблемы со скриншотами, переходом по ссылками, скачиванием торрентов - проблемы в блокировщике рекламы AdBlock. #хорошегоДня!


Статистика раздачи
Размер:  149 MB   |    Зарегистрирован:  6 лет 9 месяцев   |    .torrent скачан:  55 раз   |   
Раздают:  1  
   
Загрузка...
 
Автор Сообщение

AqvaGen


Лузеры / Хор / Песня / Glee

Название альбома: The Rocky Horror Glee Show

Жанр: Soundtrack
Год выпуска диска: 2010
Страна-производитель диска: USA

Аудио кодек: FLAC (*.flac)
Тип рипа: tracks+.cue
Битрейт аудио: lossless
Продолжительность: 21:40

Треклист:

[04:29] 01. Santana - Science Fiction Double Feature
[02:42] 02. Rachel, Finn, Kurt, Mercedes & Quinn - Damn It, Janet
[03:06] 03. Dr. Carl Howell - Whatever Happened To Saturday Night?
[03:02] 04. Mercedes, Santana & Brittany - Sweet Transvestite
[02:31] 05. Emma, Santana, Will, Kurt, Finn & Dr. Carl Howell - Touch A Touch A Touch A Touch Me
[02:34] 06. Rachel, Finn & Kurt - There's A Light (Over At The Frankenstein Place)
[03:13] 07. Kurt, Quinn, Tina, Brittany, Santana, Artie & Finn - Time Warp
 
Exact Audio Copy V0.99 prebeta 4 from 23. January 2008

EAC extraction logfile from 20. October 2010, 0:28

Glee / Glee: The Music, The Rocky Horror Glee Show

Used drive : PIONEER DVR-113NP Adapter: 0 ID: 0

Read mode : SecureUtilize accurate stream : YesDefeat audio cache : YesMake use of C2 pointers : No

Read offset correction : 6Overread into Lead-In and Lead-Out : NoFill up missing offset samples with silence : YesDelete leading and trailing silent blocks : NoNull samples used in CRC calculations : YesUsed interface : Native Win32 interface for Win NT & 2000Gap handling : Appended to previous track

Used output format : User Defined EncoderSelected bitrate : 128 kBit/sQuality : HighAdd ID3 tag : NoCommand line compressor : C:\Program Files\FLAC\flac.exeAdditional command line options : -V -8 -T "artist=%a" -T "title=%t" -T "album=%g" -T "date=%y" -T "tracknumber=%n" -T "genre=%m" %s

TOC of the extracted CD

Track | Start | Length | Start sector | End sector --------------------------------------------------------- 1 | 0:00.00 | 4:29.50 | 0 | 20224 2 | 4:29.50 | 2:42.32 | 20225 | 32406 3 | 7:12.07 | 3:06.28 | 32407 | 46384 4 | 10:18.35 | 3:02.24 | 46385 | 60058 5 | 13:20.59 | 2:31.15 | 60059 | 71398 6 | 15:51.74 | 2:34.44 | 71399 | 82992 7 | 18:26.43 | 3:13.42 | 82993 | 97509

Track 1

Filename D:\My Music\0NEW\Glee\Glee- The Music, The Rocky Horror Glee Show\01 - Glee - Science Fiction Double Feature.wav

Pre-gap length 0:00:02.00

Peak level 98.8 % Track quality 100.0 % Test CRC 7DBC23F0 Copy CRC 7DBC23F0 Track not present in AccurateRip database Copy OK

Track 2

Filename D:\My Music\0NEW\Glee\Glee- The Music, The Rocky Horror Glee Show\02 - Glee - Damn It, Janet.wav

Pre-gap length 0:00:01.51

Peak level 98.8 % Track quality 100.0 % Test CRC 4DFBD4FD Copy CRC 4DFBD4FD Track not present in AccurateRip database Copy OK

Track 3

Filename D:\My Music\0NEW\Glee\Glee- The Music, The Rocky Horror Glee Show\03 - Glee - Whatever Happened To Saturday Night .wav

Pre-gap length 0:00:01.30

Peak level 98.2 % Track quality 100.0 % Test CRC 2F48549E Copy CRC 2F48549E Track not present in AccurateRip database Copy OK

Track 4

Filename D:\My Music\0NEW\Glee\Glee- The Music, The Rocky Horror Glee Show\04 - Glee - Sweet Transvestite.wav

Pre-gap length 0:00:01.73

Peak level 98.8 % Track quality 100.0 % Test CRC 2F513035 Copy CRC 2F513035 Track not present in AccurateRip database Copy OK

Track 5

Filename D:\My Music\0NEW\Glee\Glee- The Music, The Rocky Horror Glee Show\05 - Glee - Touch A Touch A Touch A Touch Me.wav

Pre-gap length 0:00:02.30

Peak level 98.8 % Track quality 100.0 % Test CRC F8694072 Copy CRC F8694072 Track not present in AccurateRip database Copy OK

Track 6

Filename D:\My Music\0NEW\Glee\Glee- The Music, The Rocky Horror Glee Show\06 - Glee - There's A Light (Over At The Frankenstein Place).wav

Pre-gap length 0:00:01.43

Peak level 98.8 % Track quality 100.0 % Test CRC F405CC64 Copy CRC F405CC64 Track not present in AccurateRip database Copy OK

Track 7

Filename D:\My Music\0NEW\Glee\Glee- The Music, The Rocky Horror Glee Show\07 - Glee - Time Warp.wav

Pre-gap length 0:00:01.07

Peak level 98.8 % Track quality 100.0 % Test CRC D13377F3 Copy CRC D13377F3 Track not present in AccurateRip database Copy OK

None of the tracks are present in the AccurateRip database

No errors occurred

End of status report
 
REM GENRE SoundtrackREM DATE 2010REM DISCID 44051407REM COMMENT "ExactAudioCopy v0.99pb4"PERFORMER "Glee"TITLE "Glee: The Music, The Rocky Horror Glee Show"FILE "01 - Glee - Science Fiction Double Feature.wav" WAVE TRACK 01 AUDIO TITLE "Science Fiction Double Feature" PERFORMER "Glee" INDEX 01 00:00:00 TRACK 02 AUDIO TITLE "Damn It, Janet" PERFORMER "Glee" INDEX 00 04:27:74FILE "02 - Glee - Damn It, Janet.wav" WAVE INDEX 01 00:00:00 TRACK 03 AUDIO TITLE "Whatever Happened To Saturday Night?" PERFORMER "Glee" INDEX 00 02:41:02FILE "03 - Glee - Whatever Happened To Saturday Night .wav" WAVE INDEX 01 00:00:00 TRACK 04 AUDIO TITLE "Sweet Transvestite" PERFORMER "Glee" INDEX 00 03:04:30FILE "04 - Glee - Sweet Transvestite.wav" WAVE INDEX 01 00:00:00 TRACK 05 AUDIO TITLE "Touch A Touch A Touch A Touch Me" PERFORMER "Glee" INDEX 00 02:59:69FILE "05 - Glee - Touch A Touch A Touch A Touch Me.wav" WAVE INDEX 01 00:00:00 TRACK 06 AUDIO TITLE "There's A Light (Over At The Frankenstein Place)" PERFORMER "Glee" INDEX 00 02:29:47FILE "06 - Glee - There's A Light (Over At The Frankenstein Place).wav" WAVE INDEX 01 00:00:00 TRACK 07 AUDIO TITLE "Time Warp" PERFORMER "Glee" INDEX 00 02:33:37FILE "07 - Glee - Time Warp.wav" WAVE INDEX 01 00:00:00


Трекер:  [ 19-Дек-2010 16:54 ]

  

Скачать .torrent

Размер .torrent файла 13 KB


Размер: 149 MB
Хэш (hash) релиза: 28e0c656353fc41216816f80dee6ef87637d6b16

Торренты, похожие на Лузеры Хор скачать торрент

Форум Название Автор Размер S L Добавлен
Саундтреки к фильмам и мультфильмам (mp3) ·· (Soundtrack) Лузеры / Хор / Песня // Glee (The Rocky Horror Glee Show) - 2010, MP3 (tracks), 320 kbps Galfimbul 7108533568 MB 0 0 1292266319

21:51

13-Дек-10

bot

Топик был перенесен в форум Саундтреки к фильмам и мультфильмам (lossless)

Перенес AqvaGen

Хотите добавить комментарий к записи скачать торрент Лузеры Хор

!Обратная связь