Скачать через торрент музыку Пила 4 Saw IV бесплатно без регистрации torrent

Если у вас наблюдаются проблемы со скриншотами, переходом по ссылками, скачиванием торрентов - проблемы в блокировщике рекламы AdBlock. #хорошегоДня!


Статистика раздачи
Размер:  558 MB   |    Зарегистрирован:  6 лет 2 месяца   |    .torrent скачан:  675 раз   |   
Раздают:  1  
   
Загрузка...
 
Автор Сообщение

Galfimbul

avatar Galfimbul


Пила 4 / Saw IV

Жанр: Soundtrack || Год выпуска: 2007 || Страна: USA || Аудио кодек: FLAC || Тип рипа: tracks+.cue || Битрейт аудио: lossless
Продолжительность: 01:16:12 || Источник: what.cd

01 - Nitzer Ebb - Payroll (Johna Mix) (02:57)
02 - Saosin - Collapse (03:17)
03 - Drowning Pool - Shame (03:11)
04 - Sixx A.M. - Tomorrow (04:06)
05 - The Red Jumpsuit Apparatus - Misery Loves It's Company (03:17)
06 - Avenged Seven Fold - Eternal Rest (05:14)
07 - Ministry - Life Is Good (04:17)
08 - Everytime I Die - We'rewolf (03:26)
09 - Soulidium - Trapped (03:37)
10 - Submersed - Better Think Again (04:18)
11 - From Autumn to Ashes - On The Offensive (03:44)
12 - Skinny Puppy - Spasmolytic (Deftones Remix (Habitual Mix)) (04:33)
13 - Dope Stars Inc. - Beatcrusher (03:35)
14 - Emilie Autumn - Dead is the New Alive (Manipulator Mix) (05:09)
15 - Oxygen - Do You Want To Play A Game (03:29)
16 - The Human Abstract - Crossing the Rubicon (05:06)
17 - The Red Chord - Dread Prevailed (03:18)
18 - Fueled By Bire - Thrash is Back (05:16)
19 - Charlie Clouser - Just Begun (04:20)
 
Exact Audio Copy V0.99 prebeta 5 from 4. May 2009

EAC extraction logfile from 5. August 2010, 23:09

Various / Saw IV

Used drive : ASUS DRW-24B1ST Adapter: 0 ID: 1

Read mode : SecureUtilize accurate stream : YesDefeat audio cache : YesMake use of C2 pointers : No

Read offset correction : 6Overread into Lead-In and Lead-Out : NoFill up missing offset samples with silence : YesDelete leading and trailing silent blocks : NoNull samples used in CRC calculations : YesUsed interface : Native Win32 interface for Win NT & 2000Gap handling : Appended to previous track

Used output format : User Defined EncoderSelected bitrate : 1024 kBit/sQuality : HighAdd ID3 tag : NoCommand line compressor : C:\Program Files (x86)\Exact Audio Copy\FLAC\FLAC.EXEAdditional command line options : -6 -V -T "ARTIST=%a" -T "TITLE=%t" -T "ALBUM=%g" -T "DATE=%y" -T "TRACKNUMBER=%n" -T "GENRE=%m" -T "COMMENT=%e" %s -o %d

TOC of the extracted CD

Track | Start | Length | Start sector | End sector --------------------------------------------------------- 1 | 0:00.00 | 2:57.35 | 0 | 13309 2 | 2:57.35 | 3:17.15 | 13310 | 28099 3 | 6:14.50 | 3:11.30 | 28100 | 42454 4 | 9:26.05 | 4:06.35 | 42455 | 60939 5 | 13:32.40 | 3:16.56 | 60940 | 75695 6 | 16:49.21 | 5:13.49 | 75696 | 99219 7 | 22:02.70 | 4:17.26 | 99220 | 118520 8 | 26:20.21 | 3:26.20 | 118521 | 133990 9 | 29:46.41 | 3:37.31 | 133991 | 150296 10 | 33:23.72 | 4:18.06 | 150297 | 169652 11 | 37:42.03 | 3:44.33 | 169653 | 186485 12 | 41:26.36 | 4:32.43 | 186486 | 206928 13 | 45:59.04 | 3:34.59 | 206929 | 223037 14 | 49:33.63 | 5:09.26 | 223038 | 246238 15 | 54:43.14 | 3:28.62 | 246239 | 261900 16 | 58:12.01 | 5:06.24 | 261901 | 284874 17 | 63:18.25 | 3:17.61 | 284875 | 299710 18 | 66:36.11 | 5:16.03 | 299711 | 323413 19 | 71:52.14 | 4:20.09 | 323414 | 342922

Track 1

Filename C:\Users\Matt\Music\test\01. Nitzer Ebb - Payroll (Johna Mix).wav

Pre-gap length 0:00:02.00

Peak level 98.8 % Track quality 100.0 % Test CRC C634175D Copy CRC C634175D Accurately ripped (confidence 1) [B997D467] Copy OK

Track 2

Filename C:\Users\Matt\Music\test\02. Saosin - Collapse.wav

Pre-gap length 0:00:00.98

Peak level 98.8 % Track quality 100.0 % Test CRC 8E4446F7 Copy CRC 8E4446F7 Accurately ripped (confidence 1) [879E1DD4] Copy OK

Track 3

Filename C:\Users\Matt\Music\test\03. Drowning Pool - Shame.wav

Pre-gap length 0:00:00.76

Peak level 100.0 % Track quality 100.0 % Test CRC F577AD56 Copy CRC F577AD56 Accurately ripped (confidence 1) [5179996C] Copy OK

Track 4

Filename C:\Users\Matt\Music\test\04. Sixx A.M. - Tomorrow.wav

Pre-gap length 0:00:00.69

Peak level 100.0 % Track quality 100.0 % Test CRC BC41956D Copy CRC BC41956D Accurately ripped (confidence 1) [AA89D0C2] Copy OK

Track 5

Filename C:\Users\Matt\Music\test\05. The Red Jumpsuit Apparatus - Misery Loves It's Company.wav

Pre-gap length 0:00:01.09

Peak level 98.8 % Track quality 100.0 % Test CRC 68885861 Copy CRC 68885861 Accurately ripped (confidence 1) [9F75F88D] Copy OK

Track 6

Filename C:\Users\Matt\Music\test\06. Avenged Seven Fold - Eternal Rest.wav

Pre-gap length 0:00:01.62

Peak level 100.0 % Track quality 100.0 % Test CRC 79438E85 Copy CRC 79438E85 Accurately ripped (confidence 1) [1BF578FC] Copy OK

Track 7

Filename C:\Users\Matt\Music\test\07. Ministry - Life Is Good.wav

Pre-gap length 0:00:01.24

Peak level 98.8 % Track quality 99.9 % Test CRC 0B4F1772 Copy CRC 0B4F1772 Accurately ripped (confidence 1) [C51843AD] Copy OK

Track 8

Filename C:\Users\Matt\Music\test\08. Everytime I Die - We'rewolf.wav

Pre-gap length 0:00:01.96

Peak level 98.8 % Track quality 100.0 % Test CRC 145E2320 Copy CRC 145E2320 Accurately ripped (confidence 1) [5AA54704] Copy OK

Track 9

Filename C:\Users\Matt\Music\test\09. Soulidium - Trapped.wav

Pre-gap length 0:00:01.58

Peak level 98.8 % Track quality 100.0 % Test CRC D2DDBC34 Copy CRC D2DDBC34 Accurately ripped (confidence 1) [96B4F4CA] Copy OK

Track 10

Filename C:\Users\Matt\Music\test\10. Submersed - Better Think Again.wav

Peak level 100.0 % Track quality 100.0 % Test CRC A036D0C8 Copy CRC A036D0C8 Accurately ripped (confidence 1) [2E345433] Copy OK

Track 11

Filename C:\Users\Matt\Music\test\11. From Autumn to Ashes - On The Offensive.wav

Pre-gap length 0:00:02.16

Peak level 98.8 % Track quality 99.9 % Test CRC 274B0121 Copy CRC 274B0121 Accurately ripped (confidence 1) [3C3B1423] Copy OK

Track 12

Filename C:\Users\Matt\Music\test\12. Skinny Puppy - Spasmolytic (Deftones remix (Habitual Mix)).wav

Pre-gap length 0:00:01.60

Peak level 98.8 % Track quality 100.0 % Test CRC F57D6B03 Copy CRC F57D6B03 Accurately ripped (confidence 1) [8FE16F0A] Copy OK

Track 13

Filename C:\Users\Matt\Music\test\13. Dope Stars Inc. - Beatcrusher.wav

Pre-gap length 0:00:01.53

Peak level 84.1 % Track quality 100.0 % Test CRC DC03F2A8 Copy CRC DC03F2A8 Accurately ripped (confidence 1) [8BA6F4B7] Copy OK

Track 14

Filename C:\Users\Matt\Music\test\14. Emilie Autumn - Dead is the New Alive (Manipulator Mix).wav

Pre-gap length 0:00:01.65

Peak level 93.3 % Track quality 100.0 % Test CRC 60E5582B Copy CRC 60E5582B Accurately ripped (confidence 1) [0F0E244D] Copy OK

Track 15

Filename C:\Users\Matt\Music\test\15. Oxygen - Do You Want To Play A Game.wav

Pre-gap length 0:00:01.61

Peak level 98.8 % Track quality 100.0 % Test CRC 8168BA73 Copy CRC 8168BA73 Accurately ripped (confidence 1) [D13FD989] Copy OK

Track 16

Filename C:\Users\Matt\Music\test\16. The Human Abstract - Crossing the Rubicon.wav

Pre-gap length 0:00:01.10

Peak level 100.0 % Track quality 100.0 % Test CRC FB18E3C6 Copy CRC FB18E3C6 Accurately ripped (confidence 1) [1400EBDC] Copy OK

Track 17

Filename C:\Users\Matt\Music\test\17. The Red Chord - Dread Prevailed.wav

Pre-gap length 0:00:01.09

Peak level 98.8 % Track quality 100.0 % Test CRC 71C78101 Copy CRC 71C78101 Accurately ripped (confidence 1) [6E30125A] Copy OK

Track 18

Filename C:\Users\Matt\Music\test\18. Fueled By Bire - Thrash is Back.wav

Pre-gap length 0:00:01.76

Peak level 98.8 % Track quality 100.0 % Test CRC 761C48BD Copy CRC 761C48BD Accurately ripped (confidence 1) [1176E7B5] Copy OK

Track 19

Filename C:\Users\Matt\Music\test\19. Charlie Clouser - Just Begun.wav

Pre-gap length 0:00:01.73

Peak level 98.8 % Track quality 100.0 % Test CRC 7F212E75 Copy CRC 7F212E75 Accurately ripped (confidence 1) [3E19578D] Copy OK

All tracks accurately ripped

No errors occurred

End of status report
 
REM GENRE RockREM DATE 2007REM DISCID 2511DC13REM COMMENT "ExactAudioCopy v0.99pb5"FILE "01. Nitzer Ebb - Payroll (Johna Mix).wav" WAVE TRACK 01 AUDIO INDEX 01 00:00:00 TRACK 02 AUDIO INDEX 00 02:56:36FILE "02. Saosin - Collapse.wav" WAVE INDEX 01 00:00:00 TRACK 03 AUDIO INDEX 00 03:16:33FILE "03. Drowning Pool - Shame.wav" WAVE INDEX 01 00:00:00 TRACK 04 AUDIO INDEX 00 03:10:53FILE "04. Sixx A.M. - Tomorrow.wav" WAVE INDEX 01 00:00:00 TRACK 05 AUDIO INDEX 00 04:05:28FILE "05. The Red Jumpsuit Apparatus - Misery Loves It's Company.wav" WAVE INDEX 01 00:00:00 TRACK 06 AUDIO INDEX 00 03:15:09FILE "06. Avenged Seven Fold - Eternal Rest.wav" WAVE INDEX 01 00:00:00 TRACK 07 AUDIO INDEX 00 05:12:31FILE "07. Ministry - Life Is Good.wav" WAVE INDEX 01 00:00:00 TRACK 08 AUDIO INDEX 00 04:15:29FILE "08. Everytime I Die - We'rewolf.wav" WAVE INDEX 01 00:00:00 TRACK 09 AUDIO INDEX 00 03:24:51FILE "09. Soulidium - Trapped.wav" WAVE INDEX 01 00:00:00FILE "10. Submersed - Better Think Again.wav" WAVE TRACK 10 AUDIO INDEX 01 00:00:00 TRACK 11 AUDIO INDEX 00 04:15:69FILE "11. From Autumn to Ashes - On The Offensive.wav" WAVE INDEX 01 00:00:00 TRACK 12 AUDIO INDEX 00 03:42:63FILE "12. Skinny Puppy - Spasmolytic (Deftones remix (Habitual Mix)).wav" WAVE INDEX 01 00:00:00 TRACK 13 AUDIO INDEX 00 04:31:03FILE "13. Dope Stars Inc. - Beatcrusher.wav" WAVE INDEX 01 00:00:00 TRACK 14 AUDIO INDEX 00 03:33:10FILE "14. Emilie Autumn - Dead is the New Alive (Manipulator Mix).wav" WAVE INDEX 01 00:00:00 TRACK 15 AUDIO INDEX 00 05:07:55FILE "15. Oxygen - Do You Want To Play A Game.wav" WAVE INDEX 01 00:00:00 TRACK 16 AUDIO INDEX 00 03:27:54FILE "16. The Human Abstract - Crossing the Rubicon.wav" WAVE INDEX 01 00:00:00 TRACK 17 AUDIO INDEX 00 05:05:17FILE "17. The Red Chord - Dread Prevailed.wav" WAVE INDEX 01 00:00:00 TRACK 18 AUDIO INDEX 00 03:16:04FILE "18. Fueled By Bire - Thrash is Back.wav" WAVE INDEX 01 00:00:00 TRACK 19 AUDIO INDEX 00 05:14:23FILE "19. Charlie Clouser - Just Begun.wav" WAVE INDEX 01 00:00:00



Трекер:  [ 08-Июл-2011 21:49 ]

  

Скачать .torrent

Размер .torrent файла 12 KB


Размер: 558 MB
Хэш (hash) релиза: d4e70921c03452adf8a491dac0271fb1fa100c4e

Еще никто не оставлял запись к записи скачать торрент Пила 4 Saw IV . Будь первым!

!Обратная связь