Скачать через торрент музыку Johnny Mnemonic | Джонни Мнемоник - 1995, FLAC бесплатно без регистрации torrent

Если у вас наблюдаются проблемы со скриншотами, переходом по ссылками, скачиванием торрентов - проблемы в блокировщике рекламы AdBlock. #хорошегоДня!


Статистика раздачи
Размер:  345 MB   |    Зарегистрирован:  6 лет 2 месяца   |    .torrent скачан:  35 раз   |   
Раздают:  1  
   
Загрузка...
 
Автор Сообщение

Galfimbul

avatar Galfimbul


Johnny Mnemonic | Джонни Мнемоник
Жанр: Soundtrack
Год выпуска диска: 1995
Производитель диска: USA
Аудио кодек: FLAC
Тип рипа: tracks+.cue
Битрейт аудио: lossless
Продолжительность: 45:08

Трэклист:

01. Stabbing Westward - Lost
02. Cop Shoot Cop - 3 AM incident
03. Helmet - Complete
04. Orbital - Sad But True
05. KMFDM - Virus
06. Rollins Band - I See Through
07. God Lives Underwater - No More Love
08. Bono And The Edge - Alex Decends Into Hell For A Bottle Of Milk/Korova 1
09. Stabbing Westward - Nothing
10. Brad Fiedel - Send It Out
Exact Audio Copy V0.99 prebeta 5 from 4. May 2009

EAC extraction logfile from 9. November 2009, 12:01

Various / Johnny Mnemonic OST

Used drive : TSSTcorpCD/DVDW SH-S182D Adapter: 1 ID: 0

Read mode : Secure
Utilize accurate stream : Yes
Defeat audio cache : Yes
Make use of C2 pointers : No

Read offset correction : 6
Overread into Lead-In and Lead-Out : No
Fill up missing offset samples with silence : Yes
Delete leading and trailing silent blocks : No
Null samples used in CRC calculations : Yes
Used interface : Installed external ASPI interface
Gap handling : Appended to previous track

Used output format : User Defined Encoder
Selected bitrate : 1024 kBit/s
Quality : High
Add ID3 tag : No
Command line compressor : C:\Program Files\Exact Audio Copy\FLAC\FLAC.EXE
Additional command line options : -3 -V -T "ARTIST=%a" -T "TITLE=%t" -T "ALBUM=%g" -T "DATE=%y" -T "TRACKNUMBER=%n" -T "GENRE=%m" -T "COMMENT=%e" %s -o %d
Use compression offset : 48

TOC of the extracted CD

Track | Start | Length | Start sector | End sector
---------------------------------------------------------
1 | 0:00.00 | 3:19.42 | 0 | 14966
2 | 3:19.42 | 3:53.68 | 14967 | 32509
3 | 7:13.35 | 2:50.17 | 32510 | 45276
4 | 10:03.52 | 7:49.53 | 45277 | 80504
5 | 17:53.30 | 5:09.37 | 80505 | 103716
6 | 23:02.67 | 4:54.53 | 103717 | 125819
7 | 27:57.45 | 4:18.45 | 125820 | 145214
8 | 32:16.15 | 3:37.00 | 145215 | 161489
9 | 35:53.15 | 4:02.12 | 161490 | 179651
10 | 39:55.27 | 5:18.48 | 179652 | 203549

Track 1

Filename C:\New Folder\01. Stabbing Westward - Lost.wav

Pre-gap length 0:00:02.00

Peak level 93.5 %
Track quality 99.9 %
Copy CRC 0B6A4C8D
Accurately ripped (confidence 3) [7A04AC75]
Copy OK

Track 2

Filename C:\New Folder\02. Cop Shoot Cop - 3 AM incident.wav

Peak level 98.5 %
Track quality 100.0 %
Copy CRC B6415586
Accurately ripped (confidence 3) [A5F95B7B]
Copy OK

Track 3

Filename C:\New Folder\03. Helmet - Complete.wav

Pre-gap length 0:00:00.46

Peak level 88.4 %
Track quality 100.0 %
Copy CRC 0847AC70
Accurately ripped (confidence 3) [12A2344C]
Copy OK

Track 4

Filename C:\New Folder\04. Orbital - Sad But True.wav

Pre-gap length 0:00:00.10

Peak level 87.8 %
Track quality 100.0 %
Copy CRC 07F8B803
Accurately ripped (confidence 3) [239C6DE4]
Copy OK

Track 5

Filename C:\New Folder\05. KMFDM - Virus.wav

Peak level 93.3 %
Track quality 99.9 %
Copy CRC 36F33E8D
Accurately ripped (confidence 3) [1B9B7744]
Copy OK

Track 6

Filename C:\New Folder\06. Rollins Band - I See Through.wav

Pre-gap length 0:00:01.14

Peak level 95.8 %
Track quality 100.0 %
Copy CRC F484BDD4
Accurately ripped (confidence 3) [253462DD]
Copy OK

Track 7

Filename C:\New Folder\07. God Lives Underwater - No More Love.wav

Pre-gap length 0:00:00.47

Peak level 86.0 %
Track quality 100.0 %
Copy CRC 40A533FC
Accurately ripped (confidence 3) [FE80C5AB]
Copy OK

Track 8

Filename C:\New Folder\08. Bono And The Edge - Alex Decends Into Hell For A Bottle Of Milk- Korova 1.wav

Pre-gap length 0:00:01.34

Peak level 98.7 %
Track quality 100.0 %
Copy CRC 6F4B6310
Accurately ripped (confidence 3) [87054267]
Copy OK

Track 9

Filename C:\New Folder\09. Stabbing Westward - Nothing.wav

Pre-gap length 0:00:00.43

Peak level 87.0 %
Track quality 100.0 %
Copy CRC 7886CBD4
Accurately ripped (confidence 3) [A4C4B325]
Copy OK

Track 10

Filename C:\New Folder\10. Brad Fiedel - Send It Out.wav

Pre-gap length 0:00:01.33

Peak level 98.5 %
Track quality 100.0 %
Copy CRC D74251FD
Accurately ripped (confidence 2) [4B1173E0]
Copy OK

All tracks accurately ripped

No errors occurred

End of status report


Трекер:  [ 08-Июл-2011 17:19 ]

  

Скачать .torrent

Размер .torrent файла 15 KB


Размер: 345 MB
Хэш (hash) релиза: c4aa36e0c9435858f936d2a4b3d7c85aabd12a8b

Еще никто не оставлял запись к записи скачать торрент Johnny Mnemonic | Джонни Мнемоник - 1995, FLAC . Будь первым!

!Обратная связь