Скачать через торрент музыку 2012 бесплатно без регистрации torrent

Если у вас наблюдаются проблемы со скриншотами, переходом по ссылками, скачиванием торрентов - проблемы в блокировщике рекламы AdBlock. #хорошегоДня!


Статистика раздачи
Размер:  311 MB   |    Зарегистрирован:  6 лет 2 месяца   |    .torrent скачан:  36 раз   |   
Раздают:  1  
   
Загрузка...
 
Автор Сообщение

Galfimbul

avatar Galfimbul


2012
Music by Harald Kloser & Thomas Wander

Жанр: Score
Год выпуска диска: 2009
Производитель диска: USA
Аудио кодек: FLAC
Тип рипа: tracks+.cue
Битрейт аудио: lossless
Продолжительность: 00:58:01
Трэклист:
1. Time For Miracles (performed by Adam Lambert) (4:45)
2. Constellation (1:30)
3. Wisconsin (1:14)
4. U.S. Army (2:20)
5. Ready To Rumble (1:42)
6. Spirit Of Santa Monica (1:21)
7. It Ain't The End Of The World (performed by George Segal & Blu Mankuma) (2:52)
8. Great Kid (2:17)
9. Finding Charlie (1:45)
10. Run Daddy Run (1:14)
11. Stepping Into The Darkness (1:35)
12. Leaving Las Vegas (1:43)
13. Ashes In D.C. (4:19)
14. We Are Taking The Bentley (3:43)
15. Nampan Plateau (2:51)
16. Saving Caesar (2:09)
17. Adrian's Speech (1:41)
18. Open The Gates! (2:16)
19. The Impact (1:49)
20. Suicide Mission (2:06)
21. 2012 The End Of The World (1:24)
22. Collision With Mount Everest (1:09)
23. The End Is Only The Beginning (5:45)
24. Fades Like A Photograph (performed by Filter) (4:19)
 
Exact Audio Copy V0.99 prebeta 4 from 23. January 2008

EAC extraction logfile from 18. November 2009, 2:01

Harald Kloser and Thomas Wander / 2012: Original Motion Picture Soundtrack

Used drive : ASUS DRW-2014L1T Adapter: 5 ID: 0

Read mode : SecureUtilize accurate stream : YesDefeat audio cache : YesMake use of C2 pointers : No

Read offset correction : 6Overread into Lead-In and Lead-Out : NoFill up missing offset samples with silence : YesDelete leading and trailing silent blocks : NoNull samples used in CRC calculations : YesUsed interface : Installed external ASPI interfaceGap handling : Appended to previous track

Used output format : User Defined EncoderSelected bitrate : 1024 kBit/sQuality : HighAdd ID3 tag : NoCommand line compressor : C:\Program Files\FLAC\flac.exeAdditional command line options : -V -8 -T "artist=%a" -T "title=%t" -T "album=%g" -T "date=%y" -T "tracknumber=%n" -T "genre=%m" %s

TOC of the extracted CD

Track | Start | Length | Start sector | End sector --------------------------------------------------------- 1 | 0:00.00 | 4:45.12 | 0 | 21386 2 | 4:45.12 | 1:30.50 | 21387 | 28186 3 | 6:15.62 | 1:14.10 | 28187 | 33746 4 | 7:29.72 | 2:20.45 | 33747 | 44291 5 | 9:50.42 | 1:42.48 | 44292 | 51989 6 | 11:33.15 | 1:21.20 | 51990 | 58084 7 | 12:54.35 | 2:52.52 | 58085 | 71036 8 | 15:47.12 | 2:17.58 | 71037 | 81369 9 | 18:04.70 | 1:45.62 | 81370 | 89306 10 | 19:50.57 | 1:14.63 | 89307 | 94919 11 | 21:05.45 | 1:35.20 | 94920 | 102064 12 | 22:40.65 | 1:43.72 | 102065 | 109861 13 | 24:24.62 | 4:19.03 | 109862 | 129289 14 | 28:43.65 | 3:43.00 | 129290 | 146014 15 | 32:26.65 | 2:51.22 | 146015 | 158861 16 | 35:18.12 | 2:09.45 | 158862 | 168581 17 | 37:27.57 | 1:41.40 | 168582 | 176196 18 | 39:09.22 | 2:16.43 | 176197 | 186439 19 | 41:25.65 | 1:49.45 | 186440 | 194659 20 | 43:15.35 | 2:06.57 | 194660 | 204166 21 | 45:22.17 | 1:24.28 | 204167 | 210494 22 | 46:46.45 | 1:09.37 | 210495 | 215706 23 | 47:56.07 | 5:45.68 | 215707 | 241649 24 | 53:42.00 | 4:19.47 | 241650 | 261121

Track 1

Filename E:\Temp\01 - Time For Miracles (Adam Lambert).wav

Pre-gap length 0:00:02.00

Peak level 91.1 % Track quality 100.0 % Test CRC B7BEAF10 Copy CRC B7BEAF10 Copy OK

Track 2

Filename E:\Temp\02 - Constellation.wav

Peak level 97.6 % Track quality 99.8 % Test CRC 4B62DAD5 Copy CRC 4B62DAD5 Copy OK

Track 3

Filename E:\Temp\03 - Wisconsin.wav

Peak level 96.4 % Track quality 100.0 % Test CRC 938D8161 Copy CRC 938D8161 Copy OK

Track 4

Filename E:\Temp\04 - U.S. Army.wav

Peak level 97.6 % Track quality 100.0 % Test CRC 4B40743E Copy CRC 4B40743E Copy OK

Track 5

Filename E:\Temp\05 - Ready To Rumble.wav

Peak level 97.6 % Track quality 99.8 % Test CRC 5BA5BACA Copy CRC 5BA5BACA Copy OK

Track 6

Filename E:\Temp\06 - Spirit Of Santa Monica.wav

Peak level 97.6 % Track quality 100.0 % Test CRC C42C77E4 Copy CRC C42C77E4 Copy OK

Track 7

Filename E:\Temp\07 - It Ain't The End Of The World (George Segal and Blu Mankuma).wav

Peak level 92.1 % Track quality 99.9 % Test CRC 8E81CA5B Copy CRC 8E81CA5B Copy OK

Track 8

Filename E:\Temp\08 - Great Kid.wav

Peak level 81.6 % Track quality 100.0 % Test CRC A579FCC0 Copy CRC A579FCC0 Copy OK

Track 9

Filename E:\Temp\09 - Finding Charlie.wav

Peak level 97.6 % Track quality 100.0 % Test CRC 44E8E589 Copy CRC 44E8E589 Copy OK

Track 10

Filename E:\Temp\10 - Run Daddy Run.wav

Peak level 97.9 % Track quality 100.0 % Test CRC 7BB41BD8 Copy CRC 7BB41BD8 Copy OK

Track 11

Filename E:\Temp\11 - Stepping Into The Darkness.wav

Peak level 82.7 % Track quality 100.0 % Test CRC 970C7546 Copy CRC 970C7546 Copy OK

Track 12

Filename E:\Temp\12 - Leaving Las Vegas.wav

Peak level 97.6 % Track quality 99.8 % Test CRC CAD0FBE2 Copy CRC CAD0FBE2 Copy OK

Track 13

Filename E:\Temp\13 - Ashes In D.C..wav

Peak level 97.6 % Track quality 100.0 % Test CRC FC5FA72E Copy CRC FC5FA72E Copy OK

Track 14

Filename E:\Temp\14 - We Are Taking The Bentley.wav

Peak level 97.6 % Track quality 100.0 % Test CRC CC4FE88E Copy CRC CC4FE88E Copy OK

Track 15

Filename E:\Temp\15 - Nampan Plateau.wav

Peak level 97.6 % Track quality 100.0 % Test CRC 8AFFCCBC Copy CRC 8AFFCCBC Copy OK

Track 16

Filename E:\Temp\16 - Saving Caesar.wav

Peak level 97.6 % Track quality 100.0 % Test CRC E8BB9C57 Copy CRC E8BB9C57 Copy OK

Track 17

Filename E:\Temp\17 - Adrian's Speech.wav

Peak level 58.7 % Track quality 100.0 % Test CRC 37BA6228 Copy CRC 37BA6228 Copy OK

Track 18

Filename E:\Temp\18 - Open The Gates!.wav

Peak level 97.6 % Track quality 100.0 % Test CRC D773CB25 Copy CRC D773CB25 Copy OK

Track 19

Filename E:\Temp\19 - The Impact.wav

Peak level 97.6 % Track quality 99.9 % Test CRC 6C94459A Copy CRC 6C94459A Copy OK

Track 20

Filename E:\Temp\20 - Suicide Mission.wav

Peak level 97.6 % Track quality 100.0 % Test CRC 6B3745A8 Copy CRC 6B3745A8 Copy OK

Track 21

Filename E:\Temp\21 - 2012 The End Of The World.wav

Peak level 97.6 % Track quality 100.0 % Test CRC 9932D107 Copy CRC 9932D107 Copy OK

Track 22

Filename E:\Temp\22 - Collision With Mount Everest.wav

Peak level 97.6 % Track quality 100.0 % Test CRC 82808774 Copy CRC 82808774 Copy OK

Track 23

Filename E:\Temp\23 - The End Is Only The Beginning.wav

Peak level 97.6 % Track quality 100.0 % Test CRC 91E4D485 Copy CRC 91E4D485 Copy OK

Track 24

Filename E:\Temp\24 - Fades Like A Photograph (Filter).wav

Peak level 97.6 % Track quality 100.0 % Test CRC FD639E52 Copy CRC FD639E52 Copy OK

No errors occurred

End of status report


Трекер:  [ 08-Июл-2011 17:19 ]

  

Скачать .torrent

Размер .torrent файла 14 KB


Размер: 311 MB
Хэш (hash) релиза: 677255c3864a17248bae8f2b27d60cd5b6bc4d2c

Торренты, похожие на 2012 скачать торрент

Форум Название Автор Размер S L Добавлен
Rосk | Mеtаl | Аltеrnаtivе, Рunk, Indереndеnt (mр3) ·· (Instrumental Primitive Black Metal) 2012Group (2012) - 2012 - 2012-2014, MP3, 320 kbps Galfimbul 5863568356 MB 0 0 1420292748

16:45

3-Янв-15

Rосk | Mеtаl | Аltеrnаtivе, Рunk, Indереndеnt (mр3) ·· (Instrumental Black Metal) 2012 - 2012 - 2012-2014, MP3, 320 kbps Galfimbul 5863568356 MB 0 0 1420201514

15:25

2-Янв-15

Rосk | Mеtаl | Аltеrnаtivе, Рunk, Indереndеnt (mр3) ·· (Experimental Instrumental Rock Avant-garde) Buckethead - 3 Релиза - The Silent Picture Book -2012 - March of The Slunks -2012 - Racks - 2012, MP3, 320 kbps Galfimbul 223943277214 MB 0 0 1362184748

03:39

2-Мар-13

Rосk | Mеtаl | Аltеrnаtivе, Рunk, Indереndеnt (mр3) ·· (Avant-garde/Doom/Black Metal) Porta Nigra - Дискография (2012: 1 LP 2012 Fin de Siиcle, 1 EP: 2012 Megalomaniac) [MP3 (tracks), 320 kbps] Galfimbul 156829664150 MB 0 0 1362184703

03:38

2-Мар-13

Фольклор, Народная и Этническая музыка ·· Amy Macdonald - Fashion & Music 2012, Metzingen, Germany, 2012.07.28 [2012 г., folk-rock, HDRip] Galfimbul 327915520313 MB 0 0 1356514740

12:39

26-Дек-12

Саундтреки ·· (Soundtrack) Battle Of The Year 2012 (Battle Of The Year 2012) - 2012, MP3, 320 kbps Galfimbul 195987638187 MB 0 0 1356815160

00:06

30-Дек-12

Отечественный Rock ·· (Rock) Stereotok - Дискография (2 релиза) [ 2012 - Твоего сердца стук | 2012 - Запомни меня настоящим (Single)] - 2012, MP3, CBR 320 kbps Galfimbul 7698404573 MB 0 0 1355053860

14:51

9-Дек-12

Отечественный Rock ·· (Instrumental Primitive Atmospheric Black Metal) 2012 - 2012 - 2012, MP3, 320 kbps Galfimbul 4854062646 MB 0 0 1355040540

11:09

9-Дек-12

Электронная музыка ·· (Trance, Tech Trance, House) Marcel Woods (aka Marcel Scheffers, Mr. Rowan, Woody Woodspecker) - Discography (2002-2012) - 1 album, 7 compilations, 44 singles, 13 remixes - (2002-2012), [MP3 , VBR; CBR 192, 320 kbps], Обновлено: (2012-11-18) Galfimbul 71958483886.7 GB 0 0 1355135160

13:26

10-Дек-12

Электронная музыка ·· Sensation Innerspace 2012 (Санкт-Петербург, Россия) [11.06.2012 г., House, HDTV-Rip/MTV] [2012 г., House, HDTVRip] Galfimbul 103286770979.62 GB 0 0 1348470960

10:16

24-Сен-12

Электронная музыка ·· (Electro House) Dada Life - Dada Life – July 2012 Mix – 11-07-2012 - 2012, MP3, 128 kbps Galfimbul 4592753944 MB 0 0 1342707600

17:20

19-Июл-12

Электронная музыка ·· (House, Electro House, Progressive House) Mega mash-up show 2012 (part 1) - ClubStation (june 2012) - 2012, MP3, 320 kbps _N_ 145578492139 MB 0 0 1340862060

08:41

28-Июн-12

Rосk | Mеtаl | Аltеrnаtivе, Рunk, Indереndеnt (mр3) ·· (Experimental / Psychedelic Rock) Anywhere - Дискография (2 релиза) [2012 - Infrared Moses (Single) || 2012 - Anywhere] - 2012, MP3, CBR 320 kbps Galfimbul 139965682133 MB 0 0 1335363600

17:20

25-Апр-12

Электронная музыка (mp3) ·· (Psychedelic Trance) Blusm Tusm - 2012-2017 Track's - 2012-2017, MP3, 320 kbps Galfimbul 375284112358 MB 0 0 1504177367

14:02

31-Авг-17

Rосk | Mеtаl | Аltеrnаtivе, Рunk, Indереndеnt (mр3) ·· (Rock/Punk/Hardcore) Nations Afire - The Uprising (EP) (2009) The Ghosts We Will Become (2012) - 2009-2012, MP3, 128-320 kbps Galfimbul 152347949145 MB 0 0 1502638595

18:36

13-Авг-17

Rосk | Mеtаl | Аltеrnаtivе, Рunk, Indереndеnt (mр3) ·· (Folk Rock) Holy Moly And The Crackers - Discography/Дискография - 2012-2017 (2 CD: 2012-First Avenue/2017-Salem) MP3, 320 kbps Galfimbul 185427128177 MB 0 0 1500448085

10:08

19-Июл-17

Электронная музыка (lossless) ·· (Electronic, Ambient, Downtempo, Krautrock, IDM) [CD] Sankt Otten - Sequencer Liebe (2012); Messias Maschine (2013) - 2012-2013, FLAC (tracks+.cue), lossless Galfimbul 631174069602 MB 0 0 1500026644

13:04

14-Июл-17

Rосk | Mеtаl | Аltеrnаtivе, Рunk, Indереndеnt (mр3) ·· (Heavy Metal, Rock Andaluz) Arábiga (Arabiga) - Discografia (2008 - Arábiga, 2012 - Retazos De Una Vida) (2008-2012), MP3, 192 kbps Galfimbul 168097866160 MB 0 0 1498565111

15:05

27-Июн-17

Электронная музыка (lossless) ·· (experimental, witch house, industrial, ambient) [WEB] Fraunhofer Diffraction - Дискография (2012-2017) 21 релиз - 2012-2017, FLAC (tracks), lossless Galfimbul 62309787585.8 GB 0 0 1496852313

19:18

7-Июн-17

Rосk | Mеtаl | Аltеrnаtivе, Рunk, Indереndеnt (mр3) ·· (Post-Rock/Math-Rock) Mental Architects - Collection - 2012-2017 (2 CD: 2012-Celebrations/2017-Ascend) MP3, 320 kbps Galfimbul 231014644220 MB 0 0 1496215283

10:21

31-Май-17

Еще никто не оставлял запись к записи скачать торрент 2012 . Будь первым!

!Обратная связь