Скачать через торрент музыку La Reine Margot Королева Марго бесплатно без регистрации torrent

Если у вас наблюдаются проблемы со скриншотами, переходом по ссылками, скачиванием торрентов - проблемы в блокировщике рекламы AdBlock. #хорошегоДня!


Статистика раздачи
Размер:  219 MB   |    Зарегистрирован:  6 лет 2 месяца   |    .torrent скачан:  49 раз   |   
Раздают:  1  
   
Загрузка...
 
Автор Сообщение

Galfimbul

avatar Galfimbul


Goran Bregovic - La Reine Margot

Жанр: Score
Год выпуска диска: 1994
Производитель диска: France
Аудио кодек: FLAC
Тип рипа: tracks+.cue
Битрейт аудио: lossless
Продолжительность: 00:39:56
Трэклист:
01 - Elo Hi (Canto Nero) (Feat. Ofra Haza)
02 - Rondinella
03 - La Nuit De La Saint Barthelemy
04 - Le Matin
05 - Lullaby
06 - Ruda Neruda
07 - U Te Sam Se Zaljubia
08 - La Chasse
09 - Margot
10 - Rencontre
11 - Marguerite De Valois Et Henri De Navarre
12 - Le Mariage
13 - La Nuit
14 - Elo Hi (Feat. Ofra Haza)
 
Exact Audio Copy V0.99 prebeta 5 from 4. May 2009

EAC extraction logfile from 11. March 2010, 18:17

Goran Bregovic / La Reine Margot OST

Used drive : HL-DT-STDVD-RAM GH22NP20 Adapter: 1 ID: 1

Read mode : SecureUtilize accurate stream : YesDefeat audio cache : YesMake use of C2 pointers : No

Read offset correction : 102Overread into Lead-In and Lead-Out : NoFill up missing offset samples with silence : YesDelete leading and trailing silent blocks : NoNull samples used in CRC calculations : YesUsed interface : Installed external ASPI interfaceGap handling : Appended to previous track

Used output format : User Defined EncoderSelected bitrate : 1024 kBit/sQuality : HighAdd ID3 tag : NoCommand line compressor : C:\Program Files\Exact Audio Copy\FLAC\FLAC.EXEAdditional command line options : -5 -V -T "ARTIST=%a" -T "TITLE=%t" -T "ALBUM=%g" -T "DATE=%y" -T "TRACKNUMBER=%n" -T "GENRE=%m" -T "COMMENT=%e" %s -o %d

TOC of the extracted CD

Track | Start | Length | Start sector | End sector --------------------------------------------------------- 1 | 0:00.00 | 4:15.02 | 0 | 19126 2 | 4:15.02 | 3:02.33 | 19127 | 32809 3 | 7:17.35 | 5:46.27 | 32810 | 58786 4 | 13:03.62 | 2:30.18 | 58787 | 70054 5 | 15:34.05 | 4:07.67 | 70055 | 88646 6 | 19:41.72 | 1:39.53 | 88647 | 96124 7 | 21:21.50 | 1:40.20 | 96125 | 103644 8 | 23:01.70 | 4:20.25 | 103645 | 123169 9 | 27:22.20 | 2:16.07 | 123170 | 133376 10 | 29:38.27 | 3:18.28 | 133377 | 148254 11 | 32:56.55 | 0:11.72 | 148255 | 149151 12 | 33:08.52 | 3:27.43 | 149152 | 164719 13 | 36:36.20 | 2:15.45 | 164720 | 174889 14 | 38:51.65 | 1:29.70 | 174890 | 181634

Track 1

Filename C:\New Folder\01 - Elo Hi (Canto Nero) (Feat. Ofra Haza).wav

Pre-gap length 0:00:02.00

Peak level 98.0 % Track quality 99.9 % Test CRC 74043253 Copy CRC 74043253 Track not present in AccurateRip database Copy OK

Track 2

Filename C:\New Folder\02 - Rondinella.wav

Pre-gap length 0:00:03.54

Peak level 80.8 % Track quality 100.0 % Test CRC C4CA89AB Copy CRC C4CA89AB Track not present in AccurateRip database Copy OK

Track 3

Filename C:\New Folder\03 - La Nuit De La Saint Barthelemy.wav

Pre-gap length 0:00:01.98

Peak level 96.8 % Track quality 99.9 % Test CRC 671A0077 Copy CRC 671A0077 Track not present in AccurateRip database Copy OK

Track 4

Filename C:\New Folder\04 - Le Matin.wav

Peak level 94.3 % Track quality 100.0 % Test CRC 09B8E43A Copy CRC 09B8E43A Track not present in AccurateRip database Copy OK

Track 5

Filename C:\New Folder\05 - Lullaby.wav

Pre-gap length 0:00:02.21

Peak level 79.7 % Track quality 100.0 % Test CRC F8656264 Copy CRC F8656264 Track not present in AccurateRip database Copy OK

Track 6

Filename C:\New Folder\06 - Ruda Neruda.wav

Pre-gap length 0:00:01.28

Peak level 81.9 % Track quality 100.0 % Test CRC C07A97F5 Copy CRC C07A97F5 Track not present in AccurateRip database Copy OK

Track 7

Filename C:\New Folder\07 - U Te Sam Se Zaljubia.wav

Pre-gap length 0:00:03.49

Peak level 81.4 % Track quality 99.8 % Test CRC D97CF6E4 Copy CRC D97CF6E4 Track not present in AccurateRip database Copy OK

Track 8

Filename C:\New Folder\08 - La Chasse.wav

Pre-gap length 0:00:01.68

Peak level 96.8 % Track quality 99.9 % Test CRC 65FCA87D Copy CRC 65FCA87D Track not present in AccurateRip database Copy OK

Track 9

Filename C:\New Folder\09 - Margot.wav

Pre-gap length 0:00:02.60

Peak level 94.2 % Track quality 100.0 % Test CRC E782D9C7 Copy CRC E782D9C7 Track not present in AccurateRip database Copy OK

Track 10

Filename C:\New Folder\10 - Rencontre.wav

Pre-gap length 0:00:01.20

Peak level 93.5 % Track quality 100.0 % Test CRC 893E0E76 Copy CRC 893E0E76 Track not present in AccurateRip database Copy OK

Track 11

Filename C:\New Folder\11 - Marguerite De Valois Et Henri De Navarre.wav

Pre-gap length 0:00:01.70

Peak level 35.7 % Track quality 99.1 % Test CRC 0B8E12F0 Copy CRC 0B8E12F0 Track not present in AccurateRip database Copy OK

Track 12

Filename C:\New Folder\12 - Le Mariage.wav

Peak level 94.3 % Track quality 100.0 % Test CRC 185EF292 Copy CRC 185EF292 Track not present in AccurateRip database Copy OK

Track 13

Filename C:\New Folder\13 - La Nuit.wav

Pre-gap length 0:00:01.76

Peak level 92.3 % Track quality 100.0 % Test CRC 92DB1C4B Copy CRC 92DB1C4B Track not present in AccurateRip database Copy OK

Track 14

Filename C:\New Folder\14 - Elo Hi (Feat. Ofra Haza).wav

Peak level 88.2 % Track quality 100.0 % Test CRC EF6B92AF Copy CRC EF6B92AF Track not present in AccurateRip database Copy OK

None of the tracks are present in the AccurateRip database

No errors occurred

End of status report
 
REM GENRE SoundtrackREM DATE 1994REM DISCID DA09750EREM COMMENT "ExactAudioCopy v0.99pb5"PERFORMER "Goran Bregovic"TITLE "La Reine Margot OST"FILE "01 - Elo Hi (Canto Nero) (Feat. Ofra Haza).wav" WAVE TRACK 01 AUDIO TITLE "Elo Hi (Canto Nero) (Feat. Ofra Haza)" PERFORMER "Goran Bregovic" INDEX 01 00:00:00 TRACK 02 AUDIO TITLE "Rondinella" PERFORMER "Goran Bregovic" INDEX 00 04:11:36FILE "02 - Rondinella.wav" WAVE INDEX 01 00:00:00 TRACK 03 AUDIO TITLE "La Nuit De La Saint Barthelemy" PERFORMER "Goran Bregovic" INDEX 00 03:00:34FILE "03 - La Nuit De La Saint Barthelemy.wav" WAVE INDEX 01 00:00:00FILE "04 - Le Matin.wav" WAVE TRACK 04 AUDIO TITLE "Le Matin" PERFORMER "Goran Bregovic" INDEX 01 00:00:00 TRACK 05 AUDIO TITLE "Lullaby" PERFORMER "Goran Bregovic" INDEX 00 02:28:02FILE "05 - Lullaby.wav" WAVE INDEX 01 00:00:00 TRACK 06 AUDIO TITLE "Ruda Neruda" PERFORMER "Goran Bregovic" INDEX 00 04:06:46FILE "06 - Ruda Neruda.wav" WAVE INDEX 01 00:00:00 TRACK 07 AUDIO TITLE "U Te Sam Se Zaljubia" PERFORMER "Goran Bregovic" INDEX 00 01:36:16FILE "07 - U Te Sam Se Zaljubia.wav" WAVE INDEX 01 00:00:00 TRACK 08 AUDIO TITLE "La Chasse" PERFORMER "Goran Bregovic" INDEX 00 01:38:44FILE "08 - La Chasse.wav" WAVE INDEX 01 00:00:00 TRACK 09 AUDIO TITLE "Margot" PERFORMER "Goran Bregovic" INDEX 00 04:17:55FILE "09 - Margot.wav" WAVE INDEX 01 00:00:00 TRACK 10 AUDIO TITLE "Rencontre" PERFORMER "Goran Bregovic" INDEX 00 02:14:67FILE "10 - Rencontre.wav" WAVE INDEX 01 00:00:00 TRACK 11 AUDIO TITLE "Marguerite De Valois Et Henri De Navarre" PERFORMER "Goran Bregovic" INDEX 00 03:16:50FILE "11 - Marguerite De Valois Et Henri De Navarre.wav" WAVE INDEX 01 00:00:00FILE "12 - Le Mariage.wav" WAVE TRACK 12 AUDIO TITLE "Le Mariage" PERFORMER "Goran Bregovic" INDEX 01 00:00:00 TRACK 13 AUDIO TITLE "La Nuit" PERFORMER "Goran Bregovic" INDEX 00 03:25:61FILE "13 - La Nuit.wav" WAVE INDEX 01 00:00:00FILE "14 - Elo Hi (Feat. Ofra Haza).wav" WAVE TRACK 14 AUDIO TITLE "Elo Hi (Feat. Ofra Haza)" PERFORMER "Goran Bregovic" INDEX 01 00:00:00
'La Reine Margot - Soundtrack' is an album by Goran Bregovic, with the music that he composed for the 1994 film La Reine Margot, by Patrice Chereau.
Like most of Bregovic's work, the melodies in this soundtrack are heavily influenced by Balkan folk music tradition, but he also refurbished and recycled some of his previous work while he was the frontman of 'Bijelo Dugme', one of the most influential Yugoslav rock bands of the 1970s and 1980s. (wikipedia)

As this is a soundtrack to a movie one definetely needs to go to the nearest Blockbuster and see it first. And see it again, just to understand it.
If ever there was a European movie (besides Betty Blue) this is it! And if ever there was a European soundtrack - this is it!
Bregovic is a genius miner of musical heritage of the continent, or rather of his home country - former Yugoslavia. And what jewels he brought us!
Some of the songs worked so well that I never realized that I was watching a French movie (the book was written by Alexander Dumas) with traditional Croatian music in the background. Or a synthesis of Bosnian-Croatian-Serbian tunes. David Bowie put it best:"The end of twentieth century is about juxtaposition of information." And look what comes out when You do it right.
But, besides all this - this is just fantastic music from a great composer and skilled craftsman that was lucky to have happened to live in a great place at a great time. (Customer from Amazon)


Трекер:  [ 08-Июл-2011 17:20 ]

  

Скачать .torrent

Размер .torrent файла 19 KB


Размер: 219 MB
Хэш (hash) релиза: a0f4938039c14cd0cb7825597afa08ebf2f70c18

Торренты, похожие на La Reine Margot Королева Марго скачать торрент

Форум Название Автор Размер S L Добавлен
Саундтреки к фильмам и мультфильмам (mp3) ·· (Score) Королева Марго / La Reine Margot (by Goran Bregovic) - 1994, MP3, 320 kbps Mos 9731801593 MB 0 0 1326393183

21:33

12-Янв-12

Еще никто не оставлял запись к записи скачать торрент La Reine Margot Королева Марго . Будь первым!

!Обратная связь