Скачать порно через торрент Girls Academy Genie Vibros 3 - The Right Hand of God - Extreme Anime! Девушки академии Genie Вибромоторы 3 UnionPeer.org бесплатно онлайн HD качество

Скачать новое порно 2015, 2014 новинки через торрент UnionPeer.org

Порно торрент бесплатно ЮнионПир.орг

Если у вас наблюдаются проблемы со скриншотами, переходом по ссылками, скачиванием торрентов - проблемы в блокировщике рекламы AdBlock. #хорошегоДня!


Статистика раздачи
Размер:  652 MB   |    Зарегистрирован:  4 года 5 месяцев   |    .torrent скачан:  1017 раз   |   
Раздают:  2  
   
Загрузка...
 
Автор Сообщение

Galfimbul

avatar Galfimbul


Girls Academy Genie Vibros 3 - The Right Hand of God - Extreme Anime! / 愛嬢学園 魔神バイブロス3 -神の孕ませ悪魔の右手- ~極☆動!GXP~ / Девушки академии Genie Вибромоторы 3 - по правая рука бога - Extreme Аниме
Если вам неоткриваетса Фаил то пожалста пишитье в тему
Извенаюс за неудобства
Год производства: 2012 г.
Жанр: Animation, ADV, Fantasy, Anime, Magical Girl, School, Internal, Cumshot, Tentacles, Pregnant, X-Ray, Big Breasts
Серии: 1
Продолжительность: 33mn 42s
Цензура: Есть во всех файлах

Язык: Японский
Озвучка: Оригинальная
Студия: 01-Torte

Описание:

DLsite

Identity of the idle class hero (Zajazd takeru) "majin takeru" loves "Henri" was holy magical girl! turns into masochism SLAVE, Henry became prey to evil of dark bile acids in the Exorcist with a grudge he worked hard and "mass" no condom. Is deprived virginity Takeshi was manipulated, was raped in hole named many tentacles, carried bowed deeply to the uterus at IMMA Mono, will continue to cum over and over again. "I am impressed I,, and poured semen into the uterus feelings I.. Oh!!! " Henri girl pleasure eventually responsible for fierce creatures, was being conceived of the capstone of and both angry fist childbirth Hime~ to--!

Качество видео: GameRip
Формат видео: WMV
Видео кодек: WMV3
Аудио кодек: WMA
Видео: 800x600, 3 026 Kbps, 30.000 fps (VBR), 8 bits
Аудио : WMA, 160 Kbps, 44.1 KHz, 16bit
Video
Format : VC-1
Format profile : MP@HL
Codec ID : WMV3
Codec ID/Info : Windows Media Video 9
Codec ID/Hint : WMV3
Description of the codec : Windows Media Video 9 - Professional
Duration : 34mn 4s
Bit rate mode : Constant
Bit rate : 3 026 Kbps
Width : 800 pixels
Height : 600 pixels
Display aspect ratio : 4:3
Frame rate : 30.000 fps
Bit depth : 8 bits
Scan type : Progressive
Compression mode : Lossy
Bits/(Pixel*Frame) : 0.210
Stream size : 737 MiB
Language : Japanese
NumberOfFrames : 60684

Audio
Format : WMA
Format version : Version 2
Codec ID : 161
Codec ID/Info : Windows Media Audio
Description of the codec : Windows Media Audio 9 - 160 kbps, 44 kHz, stereo (A/V) 1-pass CBR
Duration : 34mn 4s
Bit rate mode : Constant
Bit rate : 160 Kbps
Channel(s) : 2 channels
Sampling rate : 44.1 KHz
Bit depth : 16 bits
Stream size : 39.0 MiB (6%)
Language : Japanese


Трекер:  [ 02-Мар-2013 11:04 ]

  

Скачать .torrent

Размер .torrent файла 13 KB


Размер: 652 MB
Хэш (hash) релиза: af366f484b0a04cd2e0eef6cb0d1add2c5204021

Еще никто не оставлял запись к записи скачать торрент Girls Academy Genie Vibros 3 - The Right Hand of God - Extreme Anime! Девушки академии Genie Вибромоторы 3 . Будь первым!

!Обратная связь