Скачать порно через торрент Meitore R Мейтор, Горничная UnionPeer.org бесплатно онлайн HD качество

Скачать новое порно 2015, 2014 новинки через торрент UnionPeer.org

Порно торрент бесплатно ЮнионПир.орг

Если у вас наблюдаются проблемы со скриншотами, переходом по ссылками, скачиванием торрентов - проблемы в блокировщике рекламы AdBlock. #хорошегоДня!


Статистика раздачи
Размер:  460 MB   |    Зарегистрирован:  4 года 5 месяцев   |    .torrent скачан:  854 раза   |   
Раздают:  1  
   
Загрузка...
 
Автор Сообщение

Galfimbul

avatar Galfimbul


Meitore R / Мейтор, Горничная
メイトレR
Год производства: 2012 г.
RELESE 08.11.2012
Жанр:Meid, Anal, Oral
Продолжительность: 40mn 51s
Цензура: Есть во всех файлах

Язык: Японский
Озвучка: Оригинальная
Студия: Neck

Описание: High quality HD movie of maid & master.
Loads of content and plenty of camera angles! Minimal mosaic !
With and without cosplay in a French Maid outfit!
3D (anaglyph) effects! Glasses! Celophane

Качество видео: DLversion
Формат видео: WMV
Видео кодек: Windows Media
Аудио кодек: WMA
Видео: 1024x720 12.00fps 10000kbps
Аудио 1: 48000Hz stereo 96kbps
Video
ID : 2
Format : VC-1
Format profile : MP@HL
Codec ID : WMV3
Codec ID/Info : Windows Media Video 9
Codec ID/Hint : WMV3
Description of the codec : Windows Media Video 9 - Professional
Duration : 15s 82ms
Bit rate mode : Constant
Bit rate : 10 000 Kbps
Width : 1 024 pixels
Height : 768 pixels
Display aspect ratio : 4:3
Frame rate : 12.001 fps
Bit depth : 8 bits
Scan type : Progressive
Compression mode : Lossy
Bits/(Pixel*Frame) : 1.060
Stream size : 18.0 MiB

Audio
ID : 1
Format : WMA
Format profile : Pro
Codec ID : 162
Codec ID/Info : Windows Media Audio
Description of the codec : Windows Media Audio 10 Professional - 96 kbps, 48 kHz, 2 channel 16 bit 1-pass CBR
Duration : 15s 42ms
Bit rate mode : Constant
Bit rate : 96.0 Kbps
Channel(s) : 2 channels
Sampling rate : 48.0 KHz
Bit depth : 16 bits
Stream size : 176 KiB (2%)


Трекер:  [ 02-Мар-2013 10:54 ]

  

Скачать .torrent

Размер .torrent файла 18 KB


Размер: 460 MB
Хэш (hash) релиза: edbe3105cde770b21bebfd59a8a48be24cc880ab

Еще никто не оставлял запись к записи скачать торрент Meitore R Мейтор, Горничная . Будь первым!

!Обратная связь