Скачать порно через торрент Anugard -The Magical Girl of the Night SpiraAnugarudo-rasen no yoru no mahoushoujo UnionPeer.org бесплатно онлайн HD качество

Скачать новое порно 2015, 2014 новинки через торрент UnionPeer.org

Порно торрент бесплатно ЮнионПир.орг

Если у вас наблюдаются проблемы со скриншотами, переходом по ссылками, скачиванием торрентов - проблемы в блокировщике рекламы AdBlock. #хорошегоДня!


Статистика раздачи
Размер:  211 MB   |    Зарегистрирован:  4 года 8 месяцев   |    .torrent скачан:  1216 раз   |   
Раздают:  1  
   
Загрузка...
 
Автор Сообщение

Galfimbul

avatar Galfimbul


Anugard -The Magical Girl of the Night Spiral/Anugarudo-rasen no yoru no mahoushoujo/ Anugard-Magical Girl в ночь спиральные
アヌガルド ~ラセンの夜ノ魔法少女~


Год производства: 2013 г.
RELESE 4.1.2013
Жанр: Anime Magical Girl Pregnancy/Impregnation Anal Tentacle
Серии: 1
Продолжительность: 12:44
Цензура: Есть во всех файлах
Язык: Японский
Озвучка: Оригинальная
Студия:Sacuregern
DLSITE
Описание
Assault 3DCG animation! The young mage lost in the woods versus tentacles and monstrous bugs!
Her holiness get plugged up, two and three holes at a time, evoking pleasures she's never felt before!
"I'll be good! I'll do what you want, please forgive meeee......."
Paizuri, fellatio sex service! Pleading mercy, her body is skewered by a massive phallus.
"Please don't cum inside! No, I'll get pregnant...no....."
Cum gushes inside, her belly gets fat and she gives birth in a filthy climax!
Качество видео: GameRip
Формат видео: MPEG
Видео кодек: DivX
Аудио кодек: PCM
Видео: 995Kbps, 796*608 (4:3), 10Fps, MPEG-4
Аудио 1: 1411.2kbps, 44KHz, 16bits, 2 channels, PCM
Video
ID : 0
Format : MPEG-4 Visual
Format settings, BVOP : 1
Format settings, QPel : No
Format settings, GMC : No warppoints
Format settings, Matrix : Default (H.263)
Muxing mode : Packed bitstream
Codec ID : DX50
Codec ID/Hint : DivX 5
Duration : 12mn 14s
Bit rate : 995 Kbps
Width : 796 pixels
Height : 608 pixels
Display aspect ratio : 4:3
Frame rate : 10.000 fps
Color space : YUV
Chroma subsampling : 4:2:0
Bit depth : 8 bits
Scan type : Progressive
Compression mode : Lossy
Bits/(Pixel*Frame) : 0.206
Stream size : 87.1 MiB (41%)
Writing library : DivX 6.8.5 (UTC 2009-08-20)

Audio
ID : 1
Format : PCM
Format settings, Endianness : Little
Format settings, Sign : Signed
Codec ID : 1
Duration : 12mn 14s
Bit rate mode : Constant
Bit rate : 1 411.2 Kbps
Channel(s) : 2 channels
Sampling rate : 44.1 KHz
Bit depth : 16 bits
Stream size : 124 MiB (59%)
Interleave, duration : 371 ms (3.71 video frames)
Приятного просмотра! Пожалуйста, поддержите раздачу!
Спасибо за Ваши будующие комментарии!

Трекер:  [ 02-Мар-2013 10:54 ]

  

Скачать .torrent

Размер .torrent файла 17 KB


Размер: 211 MB
Хэш (hash) релиза: c64b84dd6388bb5d9c24a8388abee933eb43bb74

Еще никто не оставлял запись к записи скачать торрент Anugard -The Magical Girl of the Night SpiraAnugarudo-rasen no yoru no mahoushoujo . Будь первым!

!Обратная связь