Скачать порно через торрент Balance Ball GirДевушка UnionPeer.org бесплатно онлайн HD качество

Скачать новое порно 2015, 2014 новинки через торрент UnionPeer.org

Порно торрент бесплатно ЮнионПир.орг

Если у вас наблюдаются проблемы со скриншотами, переходом по ссылками, скачиванием торрентов - проблемы в блокировщике рекламы AdBlock. #хорошегоДня!


Статистика раздачи
Размер:  278 MB   |    Зарегистрирован:  4 года 8 месяцев   |    .torrent скачан:  632 раза   |   
Раздают:  2  
   
Загрузка...
 
Автор Сообщение

Galfimbul

avatar Galfimbul


Sister / 妹のエロ過ぎる誘惑 / Сестра

Год производства: 2013 г.
RELESE 02.02.2013[/
Жанр: Breasts Dirty Talk Younger Sister Underwear Incest Twin Tail
Серии: 1
Продолжительность: 11:55
Цензура: Есть во всех файлах

Язык: Японский
Озвучка: Оригинальная
Студия: StarGate

Описание: Check out this lollipop teen barbie!
Based on the character from 3D digital novel "Imouto no Ero-sugiru Yuuwaku" (Little Sister's Too Lewd Temptation)

STORY
Mom and dad are on vacation. It's just big brother and sexy sassy imouto Yui. And Yui is a naughty girl.
You can't withstand her perky pouty allure. She gives you a handie and graduates to full throat-hilt oral sex.
Next thing she's riding you to a cummy internal orgasm, f*cks you between her big tits until you cum on
her face, then you make love face to face missionary style. It's three days of parental-free incest heaven.

Voiced (CV) by Yuu Shimotsuki

DLSITE

Качество видео: GameRip
Формат видео: WMV
Видео кодек: Windows Media
Аудио кодек: WMA
Video: 2,500 Kbps, 800*600(4:3), at 29.000 Fps, Vc-1 (WM3)
Audio: 192Kbs, 44,1 Khz, 16 bit, 2 channels, WMA
Video
ID : 2
Format : VC-1
Format profile : MP@HL
Codec ID : WMV3
Codec ID/Info : Windows Media Video 9
Codec ID/Hint : WMV3
Description of the codec : Windows Media Video 9 - Professional
Duration : 10mn 14s
Bit rate mode : Constant
Bit rate : 2 500 Kbps
Width : 800 pixels
Height : 600 pixels
Display aspect ratio : 4:3
Frame rate : 29.000 fps
Bit depth : 8 bits
Scan type : Progressive
Compression mode : Lossy
Bits/(Pixel*Frame) : 0.180
Stream size : 183 MiB (92%)
Language : Russian

Audio
ID : 1
Format : WMA
Format version : Version 2
Codec ID : 161
Codec ID/Info : Windows Media Audio
Description of the codec : Windows Media Audio 9.2 - 192 kbps, 44 kHz, stereo (A/V) 1-pass CBR
Duration : 10mn 14s
Bit rate mode : Constant
Bit rate : 192 Kbps
Channel(s) : 2 channels
Sampling rate : 44.1 KHz
Bit depth : 16 bits
Stream size : 14.1 MiB (7%)

Balance Ball Girl / バランスボールガール / Девушка Balance Ball
Год производства: 2012 г.
RELESE 08.12.2012
Жанр: Chirarism (Peeping) Fetish Breasts Robot Twin Tail Big Breasts
Серии: 1
Продолжительность: 3:39
Цензура: Есть во всех файлах

Язык: Японский
Озвучка: Оригинальная
Студия: StarGate
Описание: Nothing but cutie android bouncing on a balance ball! Press the button to glisten her with fluids! (for some reason!)
She won't get off that ball no matter what.

3D movie with various options like zoom, outfits, fluids.

DLSITE

Качество видео: GameRip
Формат видео: WMV
Видео кодек: Windows Media
Аудио кодек: WMA
Video: 1,648 Kbps, 856*640(4:3), at 10.000 Fps, Vc-1 (WM3)
Audio: 1411Kbps, 44,1 Khz, 16 bit, 2 channels, WMA
Video
ID : 0
Format : VC-1
Codec ID : WMV3
Codec ID/Info : Windows Media Video 9
Codec ID/Hint : WMV3
Duration : 3mn 39s
Bit rate : 1 648 Kbps
Width : 856 pixels
Height : 640 pixels
Display aspect ratio : 4:3
Frame rate : 10.000 fps
Bit depth : 8 bits
Compression mode : Lossy
Bits/(Pixel*Frame) : 0.301
Stream size : 43.2 MiB (54%)

Audio
ID : 1
Format : PCM
Format settings, Endianness : Little
Format settings, Sign : Signed
Codec ID : 1
Duration : 3mn 39s
Bit rate mode : Constant
Bit rate : 1 411.2 Kbps
Channel(s) : 2 channels
Sampling rate : 44.1 KHz
Bit depth : 16 bits
Stream size : 37.0 MiB (46%)
Interleave, duration : 371 ms (3.71 video frames)


Трекер:  [ 02-Мар-2013 10:54 ]

  

Скачать .torrent

Размер .torrent файла 11 KB


Размер: 278 MB
Хэш (hash) релиза: 581d2283f94f75eaebcbdba4c8931363acdec9fe

Еще никто не оставлял запись к записи скачать торрент Balance Ball GirДевушка . Будь первым!

!Обратная связь