Скачать через торрент музыку Amii Stewart Sings Ennio Morricone - Pearls - 1990, APE бесплатно без регистрации torrent

Если у вас наблюдаются проблемы со скриншотами, переходом по ссылками, скачиванием торрентов - проблемы в блокировщике рекламы AdBlock. #хорошегоДня!


Статистика раздачи
Размер:  189 MB   |    Зарегистрирован:  6 лет 5 месяцев   |    .torrent скачан:  35 раз   |   
Раздают:  1  
   
Загрузка...
 
Автор Сообщение

Galfimbul

avatar Galfimbul


Amii Stewart Sings Ennio Morricone - Pearls

Жанр: Score / Soundtrack
Год выпуска диска: 1990
Аудио кодек: APE
Тип рипа: image+.cue
Релизер: Biffjerky
Битрейт аудио: lossless
Трэклист:
01. My Heart and I
02. Desire (Chi Mai)
03. Hurry to Me
04. Come Sail Away
05. Here's to You
06. Song for Elena
07. One Love
08. Saharan Dream
09. Sean Sean
10. Could Heaven Be
 
Exact Audio Copy V0.99 prebeta 4 from 23. January 2008

EAC extraction logfile from 21. April 2009, 17:40

Amii Stewart / Pearls

Used drive : PLEXTOR DVDR PX-712A Adapter: 1 ID: 1

Read mode : SecureUtilize accurate stream : YesDefeat audio cache : YesMake use of C2 pointers : No

Read offset correction : 30Overread into Lead-In and Lead-Out : YesFill up missing offset samples with silence : YesDelete leading and trailing silent blocks : NoNull samples used in CRC calculations : YesUsed interface : Native Win32 interface for Win NT & 2000

Used output format : Internal WAV RoutinesSample format : 44.100 Hz; 16 Bit; Stereo

TOC of the extracted CD

Track | Start | Length | Start sector | End sector --------------------------------------------------------- 1 | 0:00.00 | 4:57.50 | 0 | 22324 2 | 4:57.50 | 3:41.00 | 22325 | 38899 3 | 8:38.50 | 4:08.62 | 38900 | 57561 4 | 12:47.37 | 4:48.00 | 57562 | 79161 5 | 17:35.37 | 3:52.00 | 79162 | 96561 6 | 21:27.37 | 4:44.00 | 96562 | 117861 7 | 26:11.37 | 4:07.00 | 117862 | 136386 8 | 30:18.37 | 3:08.00 | 136387 | 150486 9 | 33:26.37 | 3:37.00 | 150487 | 166761 10 | 37:03.37 | 1:59.38 | 166762 | 175724

Range status and errors

Selected range

Filename: Amii Stewart - Pearls.wav

Peak level 100.0 % Range quality 100.0 % Copy CRC F24E47A1 Copy OK

No errors occurred

AccurateRip summary

Track 1 not present in databaseTrack 2 not present in databaseTrack 3 not present in databaseTrack 4 not present in databaseTrack 5 not present in databaseTrack 6 not present in databaseTrack 7 not present in databaseTrack 8 not present in databaseTrack 9 not present in databaseTrack 10 not present in database

None of the tracks are present in the AccurateRip database

End of status report


Трекер:  [ 08-Июл-2011 17:21 ]

  

Скачать .torrent

Размер .torrent файла 15 KB


Размер: 189 MB
Хэш (hash) релиза: be055d429cdfa9e23fd526b079a55a33986e2685

Еще никто не оставлял запись к записи скачать торрент Amii Stewart Sings Ennio Morricone - Pearls - 1990, APE . Будь первым!

!Обратная связь