Скачать через торрент музыку Вампирский засос Vampires Suck - 2010, FLAC бесплатно без регистрации torrent

Если у вас наблюдаются проблемы со скриншотами, переходом по ссылками, скачиванием торрентов - проблемы в блокировщике рекламы AdBlock. #хорошегоДня!


Статистика раздачи
Размер:  344 MB   |    Зарегистрирован:  6 лет 2 месяца   |    .torrent скачан:  30 раз   |   
Раздают:  1  
   
Загрузка...
 
Автор Сообщение

Galfimbul

avatar Galfimbul


Вампирский засос / Vampires Suck

Жанр: Soundtrack
Год выпуска диска: 2010
Страна-производитель диска: USA (информация не проверена)
Издатель (лейбл): Lakeshore Records
Номер по каталогу: LKS341882
EAN/UPC: 780163418828

Аудио кодек: FLAC (*.flac)
Тип рипа: image+.cue
Битрейт аудио: lossless
Продолжительность: 47:07

Источник: собственный рип
Наличие сканов в содержимом раздачи: да (600dpi)

Треклист:
01. Magicwandos / My Panties [0:02:05.20]
02. Magicwandos / Succubus Baby [0:03:06.00]
03. The DeeKompressors / Believe Nothing [0:02:21.70]
04. Revival Chiefs / Late Night Superstar [0:02:37.89]
05. Killdeer / Are We On [0:03:38.24]
06. Arlaner / I Miss You [0:02:12.56]
07. Barnetta / Hey Eddie [0:00:30.50]
08. Kelly Kass / It's Raining Men (Album Version) [0:04:04.93]
09. Miss Eighty 6 / My First Wish [0:02:54.54]
10. Ali Dee / She's Going Down [0:02:14.01]
11. Alana D. / All the Way Up [0:03:30.34]
12. Classic / On Fire [0:02:02.92]
13. The 26th Street Boyz / The Hustle [0:04:05.52]
14. Grecia Godliss / If I Was Your Vampire (Album Version) [0:04:31.17]
15. Danielle Barbe / Wango Tango [0:03:16.92]
16. There I Stand / Madlife (Not In Film) [0:03:53.05]
 
Exact Audio Copy V0.99 prebeta 5 from 4. May 2009

EAC extraction logfile from 22. October 2010, 0:41

Various / Soundtrack - Vampires Suck

Used drive : HL-DT-STDVDRAM_GSA-T20N Adapter: 0 ID: 0

Read mode : SecureUtilize accurate stream : YesDefeat audio cache : YesMake use of C2 pointers : No

Read offset correction : 667Overread into Lead-In and Lead-Out : NoFill up missing offset samples with silence : YesDelete leading and trailing silent blocks : NoNull samples used in CRC calculations : YesUsed interface : Native Win32 interface for Win NT & 2000

Used output format : User Defined EncoderSelected bitrate : 1024 kBit/sQuality : HighAdd ID3 tag : NoCommand line compressor : C:\Program Files\Exact Audio Copy\Flac\flac.exeAdditional command line options : -8 -V %s

TOC of the extracted CD

Track | Start | Length | Start sector | End sector --------------------------------------------------------- 1 | 0:00.00 | 2:05.15 | 0 | 9389 2 | 2:05.15 | 3:06.00 | 9390 | 23339 3 | 5:11.15 | 2:21.53 | 23340 | 33967 4 | 7:32.68 | 2:37.67 | 33968 | 45809 5 | 10:10.60 | 3:38.18 | 45810 | 62177 6 | 13:49.03 | 2:12.42 | 62178 | 72119 7 | 16:01.45 | 0:30.38 | 72120 | 74407 8 | 16:32.08 | 4:04.70 | 74408 | 92777 9 | 20:37.03 | 2:54.41 | 92778 | 105868 10 | 23:31.44 | 2:14.01 | 105869 | 115919 11 | 25:45.45 | 3:30.26 | 115920 | 131695 12 | 29:15.71 | 2:02.69 | 131696 | 140914 13 | 31:18.65 | 4:05.39 | 140915 | 159328 14 | 35:24.29 | 4:31.13 | 159329 | 179666 15 | 39:55.42 | 3:16.69 | 179667 | 194435 16 | 43:12.36 | 3:53.04 | 194436 | 211914

Range status and errors

Selected range

Filename C:\Music\Various - Soundtrack - Vampires Suck.wav

Peak level 97.7 % Range quality 99.9 % Test CRC F545436C Copy CRC F545436C Copy OK

No errors occurred

AccurateRip summary

Track 1 not present in databaseTrack 2 not present in databaseTrack 3 not present in databaseTrack 4 not present in databaseTrack 5 not present in databaseTrack 6 not present in databaseTrack 7 not present in databaseTrack 8 not present in databaseTrack 9 not present in databaseTrack 10 not present in databaseTrack 11 not present in databaseTrack 12 not present in databaseTrack 13 not present in databaseTrack 14 not present in databaseTrack 15 not present in databaseTrack 16 not present in database

None of the tracks are present in the AccurateRip database

End of status report


Трекер:  [ 08-Июл-2011 17:24 ]

  

Скачать .torrent

Размер .torrent файла 15 KB


Размер: 344 MB
Хэш (hash) релиза: 0a5b440d2377195fccbaefd19566ca4049feb385

Торренты, похожие на Вампирский засос Vampires Suck - 2010, FLAC скачать торрент

Форум Название Автор Размер S L Добавлен
Саундтреки к фильмам и мультфильмам (lossless) ·· (Score) Вампирский засос / Vampires Suck (by Christopher Lennertz) - 2010, FLAC (image+.cue), lossless FRANKS 315447064301 MB 0 0 1292270479

23:01

13-Дек-10

Еще никто не оставлял запись к записи скачать торрент Вампирский засос Vampires Suck - 2010, FLAC . Будь первым!

!Обратная связь