Скачать через торрент музыку Michal Lorenc - Собрание сочинений бесплатно без регистрации torrent

Если у вас наблюдаются проблемы со скриншотами, переходом по ссылками, скачиванием торрентов - проблемы в блокировщике рекламы AdBlock. #хорошегоДня!


Статистика раздачи
Размер:  3.86 GB   |    Зарегистрирован:  6 лет 2 месяца   |    .torrent скачан:  62 раза   |   
Раздают:  1  
   
Загрузка...
 
Автор Сообщение

Galfimbul

avatar Galfimbul


Michal Lorenc - Собрание сочинений

Жанр: Score / Soundtrack | Годы выпуска дисков: 1991-2007 | Аудио кодек: APE, WAVPack | Тип рипа: image, image+.cue | Битрейт аудио: lossless

1. Prologue
2. Kroll
3. Fight
4. Under The Eye-Lids
5. Agatha. Street. Night
6. Adaggio Acording To Barber
7. Love Is A Great Feeling
8. Remembrance
9. Monoeuvre. Night. Rain
10. Fence
11. Coming Back Home
12. Walce. This Time
13. Chase
14. Policeman. Guards. Violins
15. Cello
16. Andante And Object
17. Manoeuvre. City. Night. Rain
18. Secret Ostinato
19. Erotic Scene
20. Water Drop Diary
21. Corridor. Escape
22. Awake
23. Die Quickly. Tutti
24. Soon
25. Ocean Of Treason
26. Poem
27. Fault
 
EAC extraction logfile from 24. June 2006, 18:49 for CDMichal Lorenc / ''Kroll''

Used drive : LITE-ON DVDRW SOHW-1693S Adapter: 1 ID: 0Read mode : Secure with NO C2, accurate stream, disable cacheRead offset correction : 12Overread into Lead-In and Lead-Out : Yes

Used output format : Internal WAV Routines 44.100 Hz; 16 Bit; Stereo

Other options : Fill up missing offset samples with silence : Yes Delete leading and trailing silent blocks : No Installed external ASPI interface

Range status and errorsSelected range Filename F:\MOJA MUZYKA\WAV\CDImage\CDImage.wav

Peak level 100.0 % Range quality 100.0 % CRC BCFAA7A6 Copy OK

No errors occured

End of status report
1. Psy (1:12)
2. Kolysanka (2:00)
3. Mafia (0:51)
4. Ona (0:39)
5. Masakra (1:03)
6. Wieczor (1:34)
7. Dom, Skrzypce, Harfa (0:53)
8. Zbrodnia (2:12)
9. Kolysanka Ii (1:56)
10. Korytarz, Krew (2:09)
11. Kraty (1:30)
12. Smierc Ubeka (0:45)
13. Kolysanie (1:56)
14. Umowa (1:50)
15. Toast (1:06)
16. Wojna (2:40)
17. Decyzja (0:32)
18. Zakochany Kundel (1:03)
19. Kolysanaka IV (2:20)
20. Strach (2:12)
21. Smierc (0:30)
22. Oni (2:19)
23. Uwertura (6:18)
24. Kolysanka (1:12)
 
EAC extraction logfile from 24. June 2006, 20:39 for CDMichal Lorenc / ''Psy''

Used drive : LITE-ON DVDRW SOHW-1693S Adapter: 1 ID: 0Read mode : Secure with NO C2, accurate stream, disable cacheRead offset correction : 12Overread into Lead-In and Lead-Out : No

Used output format : Internal WAV Routines 44.100 Hz; 16 Bit; Stereo

Other options : Fill up missing offset samples with silence : Yes Delete leading and trailing silent blocks : No Installed external ASPI interface

Range status and errorsSelected range Filename F:\MOJA MUZYKA\WAV\CDImage\CDImage.wav

Peak level 98.8 % Range quality 99.9 % CRC 88089B8E Copy OK

No errors occured

End of status report
1. Chorwacja 1994 ''Erba Mala Presto Crease''
2. Temat Na Wiolonczele
3. Franz Mauer
4. Hejnal
5. Wieczory
6. Hawaje
7. Pieniadze
8. Flugelhorn I Ziut
9. Spotkanie
10. Mgla
11. Strzelnica
12. Uklad
13. Konfrontacja
14. Decyzja
15. Walka
16. 46 Milionow Karabinow Maszynowych I 2 Skrzynki Granatow
17. Spojrzenie
18. Tam, W Cementowni (Od Oka Do Gardla)
19. Spokoj
20. Wedlug Mnie
21. Szafa
22. Stol
23. Dobranoc Misiu
24. Nie Pytaj Mnie
 
EAC extraction logfile from 3. August 2006, 18:58 for CDVarious / ''Psy 2 - Ostatnia krew''

Used drive : LITE-ON DVDRW SOHW-1693S Adapter: 1 ID: 0Read mode : Secure with NO C2, accurate stream, disable cacheRead offset correction : 12Overread into Lead-In and Lead-Out : No

Used output format : Internal WAV Routines 44.100 Hz; 16 Bit; Stereo

Other options : Fill up missing offset samples with silence : Yes Delete leading and trailing silent blocks : No Installed external ASPI interface

Range status and errorsSelected range Filename F:\MOJA MUZYKA\WAV\CDImage\CDImage.wav

Peak level 100.0 % Range quality 100.0 % CRC 222E8605 Copy OK

No errors occured

End of status report
1. Exit In Black (1:16)
2. Exit In Golden (3:28)
3. Exit In Shell (3:38)
4. Exit In Blue (5:48)
5. Exit In Yellow (3:23)
6. Exit In Copper (3:53)
7. Exit In Dull (3:03)
8. Exit In Argent (3:26)
9. Exit In Violet (2:22)
10. Exit In Brown (1:57)
11. Exit In Ashen (4:06)
12. Sancta Maria (2:59)
13. Exit In Orange (4:50)
14. Exit In Green (3:24)
15. Exit In Grey (3:06)
16. Pasiku Bye, Bye (4:04)
17. Exile (3:25)
 
EAC extraction logfile from 25. June 2006, 9:46 for CDMichal Lorenc / ''Exit in Red''

Used drive : LITE-ON DVDRW SOHW-1693S Adapter: 1 ID: 0Read mode : Secure with NO C2, accurate stream, disable cacheRead offset correction : 12Overread into Lead-In and Lead-Out : No

Used output format : Internal WAV Routines 44.100 Hz; 16 Bit; Stereo

Other options : Fill up missing offset samples with silence : Yes Delete leading and trailing silent blocks : No Installed external ASPI interface

Range status and errorsSelected range Filename F:\MOJA MUZYKA\WAV\CDImage\CDImage.wav

Peak level 100.0 % Range quality 100.0 % CRC A996C30F Copy OK

No errors occured

End of status report
1. Mro Ilo
2. Taniec Eleny
3. Brute I Elena
4. Pogon
5. Temat Eleny Na Cymbaly
6. Gory
7. Kradziez Pistoletu
8. Prezent Brute'a
9. Sen Eleny
10. Porwanie Iorgu
11. Moscu I Tatuaz
12. Gory W Sloncu
13. Pogon, Lekarstwa I Karabiny
14. Requiem Balkanskie
15. Deszcz
16. Temat Eleny Na Skrzypce
17. Ulice Londynu
18. Targ
19. Elegia Na Smierc Szpitala
20. Oczekiwanie
21. W Tunelu Eleny
22. Powrot
23. Taniec Eleny (Wersja Ii)
24. Mro Ilo (Wersja Ii)
 
Exact Audio Copy V0.99 prebeta 4 from 23. January 2008

EAC extraction logfile from 20. July 2008, 19:52

Michal Lorenc / Bandyta

Used drive : HL-DT-STDVDRAM GSA-4167B Adapter: 1 ID: 1

Read mode : SecureUtilize accurate stream : YesDefeat audio cache : YesMake use of C2 pointers : No

Read offset correction : 667Overread into Lead-In and Lead-Out : NoFill up missing offset samples with silence : YesDelete leading and trailing silent blocks : NoNull samples used in CRC calculations : NoUsed interface : Installed external ASPI interface

Used output format : Internal WAV RoutinesSample format : 44.100 Hz; 16 Bit; Stereo

TOC of the extracted CD

Track | Start | Length | Start sector | End sector --------------------------------------------------------- 1 | 0:00.00 | 2:09.17 | 0 | 9691 2 | 2:09.17 | 3:34.28 | 9692 | 25769 3 | 5:43.45 | 2:00.17 | 25770 | 34786 4 | 7:43.62 | 1:51.28 | 34787 | 43139 5 | 9:35.15 | 1:41.55 | 43140 | 50769 6 | 11:16.70 | 2:04.37 | 50770 | 60106 7 | 13:21.32 | 2:01.50 | 60107 | 69231 8 | 15:23.07 | 1:34.48 | 69232 | 76329 9 | 16:57.55 | 1:46.40 | 76330 | 84319 10 | 18:44.20 | 2:30.34 | 84320 | 95603 11 | 21:14.54 | 2:27.48 | 95604 | 106676 12 | 23:42.27 | 2:02.60 | 106677 | 115886 13 | 25:45.12 | 2:35.50 | 115887 | 127561 14 | 28:20.62 | 3:58.50 | 127562 | 145461 15 | 32:19.37 | 1:58.72 | 145462 | 154383 16 | 34:18.34 | 1:41.28 | 154384 | 161986 17 | 35:59.62 | 2:49.25 | 161987 | 174686 18 | 38:49.12 | 1:50.45 | 174687 | 182981 19 | 40:39.57 | 1:30.05 | 182982 | 189736 20 | 42:09.62 | 1:57.45 | 189737 | 198556 21 | 44:07.32 | 1:46.70 | 198557 | 206576 22 | 45:54.27 | 2:59.15 | 206577 | 220016 23 | 48:53.42 | 3:34.25 | 220017 | 236091 24 | 52:27.67 | 3:12.19 | 236092 | 250510

Range status and errors

Selected range

Filename C:\Documents and Settings\Administrator\Moje dokumenty\Michal Lorenc - Bandyta.wav

Peak level 98.8 % Range quality 100.0 % Copy CRC 6D12934C Copy OK

No errors occurred

AccurateRip summary

Track 1 accurately ripped (confidence 1) [743CA8F2]Track 2 accurately ripped (confidence 1) [9E6F6199]Track 3 accurately ripped (confidence 1) [FC22F99C]Track 4 accurately ripped (confidence 1) [70730D9B]Track 5 accurately ripped (confidence 1) [E71AF354]Track 6 not present in databaseTrack 7 accurately ripped (confidence 1) [C4A6EBD2]Track 8 accurately ripped (confidence 1) [9B0989E4]Track 9 not present in databaseTrack 10 accurately ripped (confidence 1) [B85C7DA6]Track 11 not present in databaseTrack 12 not present in databaseTrack 13 accurately ripped (confidence 1) [3FF15FF4]Track 14 accurately ripped (confidence 1) [DA274A21]Track 15 not present in databaseTrack 16 accurately ripped (confidence 1) [2C0EBB35]Track 17 not present in databaseTrack 18 not present in databaseTrack 19 accurately ripped (confidence 1) [E5F9A79E]Track 20 not present in databaseTrack 21 accurately ripped (confidence 1) [795B59B8]Track 22 accurately ripped (confidence 1) [64F952C4]Track 23 accurately ripped (confidence 1) [69945960]Track 24 not present in database

15 track(s) accurately ripped 9 track(s) not present in the AccurateRip database

Some tracks could not be verified as accurate

End of status report
1. Jason Catches Shark (3:10)
2. Breakfast Table (2:55)
3. Alex And Susanne Fight (1:57)
4. Jason And Gabriella (1:27)
5. Alex And Vic On Boat (1:24)
6. Jason Joins Susanne (1:46)
7. Robbery (1:31)
8. Alex Comes Home (1:04)
9. Jason Finds Gabriella (1:44)
10. Chase (3:13)
11. Jason Comes Home (1:17)
12. Gabriella's Story (1:11)
13. Finding Vic In Pool (1:36)
14. Susanne Dies (2:27)
15. Jason's Revenge (3:07)
16. Necklace (2:45)
17. Alex Kills Vic (1:54)
18. Selling Necklace (1:35)
19. Jason Comes Home (1:37)
20. Jason Stronger (2:34)
21. End Credits (3:56)
 
EAC extraction logfile from 25. June 2006, 9:13 for CDMichal Lorenc / ''Blood & Wine''

Used drive : LITE-ON DVDRW SOHW-1693S Adapter: 1 ID: 0Read mode : Secure with NO C2, accurate stream, disable cacheRead offset correction : 12Overread into Lead-In and Lead-Out : No

Used output format : Internal WAV Routines 44.100 Hz; 16 Bit; Stereo

Other options : Fill up missing offset samples with silence : Yes Delete leading and trailing silent blocks : No Installed external ASPI interface

Range status and errorsSelected range Filename F:\MOJA MUZYKA\WAV\CDImage\CDImage.wav

Peak level 89.6 % Range quality 100.0 % CRC D6EF0DCD Copy OK

No errors occured

End of status report
1. Sanctum Sanctuorum (1:53)
2. Ktory Jestes (7:53)
3. Spotkanie (2:36)
4. Taniec Nozy (3:19)
5. Swit (1:21)
6. Sekal (1:26)
7. Kapliczka Agnieszki (5:37)
8. Chmury (1:20)
9. Badz Wola Twoja (2:08)
10. Przeznaczenia (3:04)
11. W Ogniu (2:30)
12. I Odpusc Nam Nasze Winy (1:18)
13. Zabic Sekala (2:38)
14. Za Nasza I Wasza Wolnosc (2:34)
15. Wina I Kara (3:12)
16. Rada Starcow (1:39)
17. Sancta Simplicitas (1:54)
 
EAC extraction logfile from 31. July 2006, 12:01 for CDMichal Lorenc / ''Zabic Sekala''

Used drive : LITE-ON DVDRW SOHW-1693S Adapter: 1 ID: 0Read mode : Secure with NO C2, accurate stream, disable cacheRead offset correction : 12Overread into Lead-In and Lead-Out : No

Used output format : Internal WAV Routines 44.100 Hz; 16 Bit; Stereo

Other options : Fill up missing offset samples with silence : Yes Delete leading and trailing silent blocks : No Installed external ASPI interface

Range status and errorsSelected range Filename F:\MOJA MUZYKA\WAV\CDImage\CDImage.wav

Peak level 95.2 % Range quality 100.0 % CRC 843DEEE2 Copy OK

No errors occured

End of status report
1. Marsz Dezerterow (2:11)
2. Zloto Dezerterow (1:29)
3. Temat Milosci (2:20)
4. Podroz Do Banku (1:00)
5. Mala Sara (2:35)
6. Marsz Rekro (2:58)
7. Tango ''Pausen'' (Z Uczuciem Mieszanym) (1:37)
8. Parada Hitlerow (1:35)
9. Zatanczmy To Edwardzie (1:34)
10. Piersi Katarzyny F. (Zwyczajnie) (3:12)
11. Bialy I Czewony (1:09)
12. Czerniakowskie Tango (1:31)
13. Parada Czolgow (1:03)
14. Haber (0:53)
15. Zloty Sejf (0:49)
16. Poscig (1:16)
17. Marsz Dezerterow II (3:09)
18. Sztuczne Wasy I Brody (3:43)
19. Walc Generala (1:05)
20. Peruki I Okulary (1:29)
21. Winda Do Getta (1:28)
22. Wegierski Lacznik (1:12)
23. Niemiecki Robak (1:12)
24. Marsz Dezerterow III (2:07)
 
EAC extraction logfile from 31. July 2006, 9:40 for CDMichal Lorenc / ''Zloto dezerterow''

Used drive : LITE-ON DVDRW SOHW-1693S Adapter: 1 ID: 0Read mode : Secure with NO C2, accurate stream, disable cacheRead offset correction : 12Overread into Lead-In and Lead-Out : No

Used output format : Internal WAV Routines 44.100 Hz; 16 Bit; Stereo

Other options : Fill up missing offset samples with silence : Yes Delete leading and trailing silent blocks : No Installed external ASPI interface

Range status and errorsSelected range Filename F:\MOJA MUZYKA\WAV\CDImage\CDImage.wav

Peak level 97.6 % Range quality 99.9 % CRC 93DB2D88 Copy OK

No errors occured

End of status report
1. Taniec Eleny [from ''Bandyta''-1997]
2. Mro ilo [from ''Bandyta''-1997]
3. W tunelu Eleny [from ''Bandyta''-1997]
4. Powrot [from ''Bandyta''-1997]
5. Brute i Elena [from ''Bandyta''-1997]
6. Pogon, lekarstwa, karabiny [from ''Bandyta''-1997]
7. Londyn [from ''Jak narkotyk''-1999]
8. Mala Sara [from ''Zloto dezerterow''-1998]
9. Exit in Black [from ''Exit in Red''-1996]
10. Exit in Violet [from ''Exit in Red''-1996]
11. Exit in Golden [from ''Exit in Red''-1996]
12. End Credits [from ''Blood and Wine''-1996]
13. Rano [from ''Nic''-1998]
14. Milosc [from ''Nic''-1998]
15. Wiara [from ''Nic''-1998]
16. Adagio [from ''Nic''-1998]
17. Droga [from ''300 mil do nieba''-1989]
18. Ptaki [from ''300 mil do nieba''-1989]
19. Wieczor [from ''300 mil do nieba''-1989]
20. Zosia [from ''Pamietnik znaleziony w garbie''-1992]
21. Ave Maria [from ''Prowokator''-1995]
22. Dolina Chocholowska [from ''Prowokator''-1995]
23. Swit [from ''Zabic Sekala''-1998]
24. Sanctum Sanctuorum [from ''Zabic Sekala''-1998]
25. Psy [from ''Psy''-1992]
26. Kolysanka [from ''Psy''-1992]
27. Deborah [from ''Deborah''-1995]
28. Talita Kum [from ''Mistrz i Malgorzata''-1999]
 
EAC extraction logfile from 4. September 2006, 10:40 for CDMichal Lorenc / ''Moje filmy''

Used drive : LITE-ON DVDRW SOHW-1693S Adapter: 1 ID: 0Read mode : Secure with C2, accurate stream, disable cacheRead offset correction : 12Overread into Lead-In and Lead-Out : No

Used output format : Internal WAV Routines 44.100 Hz; 16 Bit; Stereo

Other options : Fill up missing offset samples with silence : Yes Delete leading and trailing silent blocks : No Installed external ASPI interface

Range status and errorsSelected range Filename F:\MOJA MUZYKA\WAV\CDImage\CDImage.wav

Peak level 100.0 % Range quality 100.0 % CRC 9E8D33F7 Copy OK

No errors occured

End of status report
1. Nad Morzem
2. Zakochani [Voc. By Natalia Kukulska]
3. Latarnia Morska
4. Piotr Lukaszewski - Otworz Serce [Perf. By Karmacoma & Lipa] (Unused)
5. Blue Cactus
6. Walczyk
7. Wernisarz
8. Zakochani II
9. Wrotki
10. Techno Party
11. Zakochani I
12. Zakochani III
13. Zakochani IV
14. Impresja Na Temat
15. List
16. Szpiegowanie
17. Wrotki (Remix)
18. Gwiazdy
 
EAC extraction logfile from 25. June 2006, 13:15 for CDVarious / ''Zakochani''

Used drive : LITE-ON DVDRW SOHW-1693S Adapter: 1 ID: 0Read mode : Secure with NO C2, accurate stream, disable cacheRead offset correction : 12Overread into Lead-In and Lead-Out : No

Used output format : Internal WAV Routines 44.100 Hz; 16 Bit; Stereo

Other options : Fill up missing offset samples with silence : Yes Delete leading and trailing silent blocks : No Installed external ASPI interface

Range status and errorsSelected range Filename F:\MOJA MUZYKA\WAV\CDImage\CDImage.wav

Peak level 100.0 % Range quality 99.9 % CRC 95B895D4 Copy OK

No errors occured

End of status report
1. Niebo (2:39)
2. Pacierz (4:23)
3. Ogien [Voc. By Kayah] (2:12)
4. Rewolucja (3:06)
5. Koleda (1:12)
6. Pustynia (3:38)
7. Podroz (1:08)
8. Przedwiosnie (2:20)
9. Wojna (1:30)
10. Dom (1:00)
11. Mlodosc (2:59)
12. Wspomnienia (2:20)
13. Odwet (2:58)
14. Sol (1:45)
15. Nawloc (1:44)
16. Granica (3:18)
17. Pozegnanie (1:29)
18. Gora (2:42)
19. Zdjecie (2:06)
20. Shimi (2:21)
21. Swiatlo (1:53)
22. Taniec Ognia (3:22)
23. Kayah - Wiosna Przyjdzie I Tak (3:16)
 
EAC extraction logfile from 25. June 2006, 8:40 for CDVarious / ''Przedwiosnie''

Used drive : LITE-ON DVDRW SOHW-1693S Adapter: 1 ID: 0Read mode : Secure with NO C2, accurate stream, disable cacheRead offset correction : 12Overread into Lead-In and Lead-Out : No

Used output format : Internal WAV Routines 44.100 Hz; 16 Bit; Stereo

Other options : Fill up missing offset samples with silence : Yes Delete leading and trailing silent blocks : No Installed external ASPI interface

Range status and errorsSelected range Filename F:\MOJA MUZYKA\WAV\CDImage\CDImage.wav

Peak level 100.0 % Range quality 100.0 % CRC E674063E Copy OK

No errors occured

End of status report
1. Czolowka
2. Andrzej
3. Corka
4. Tunel
5. Poscig
6. Rozstanie
7. Mgla
8. Wieczor
9. Blues
10. Bal
11. Uwertura
12. Ona
13. Uwertura II
14. Czolowka II
 
Exact Audio Copy V0.99 prebeta 3 from 28. July 2007

EAC extraction logfile from 4. December 2007, 6:30

Michal Lorenc / ''Glina'' (limited & extended promo)

Used drive : LITE-ON DVDRW SOHW-1693S Adapter: 1 ID: 0

Read mode : SecureUtilize accurate stream : YesDefeat audio cache : YesMake use of C2 pointers : No

Read offset correction : 12Overread into Lead-In and Lead-Out : NoFill up missing offset samples with silence : YesDelete leading and trailing silent blocks : NoNull samples used in CRC calculations : YesUsed interface : Installed external ASPI interface

Used output format : Internal WAV RoutinesSample format : 44.100 Hz; 16 Bit; Stereo

TOC of the extracted CD

Track | Start | Length | Start sector | End sector --------------------------------------------------------- 1 | 0:00.00 | 1:00.42 | 0 | 4541 2 | 1:00.42 | 4:13.46 | 4542 | 23562 3 | 5:14.13 | 3:05.27 | 23563 | 37464 4 | 8:19.40 | 3:46.18 | 37465 | 54432 5 | 12:05.58 | 2:02.61 | 54433 | 63643 6 | 14:08.44 | 4:09.69 | 63644 | 82387 7 | 18:18.38 | 2:52.58 | 82388 | 95345 8 | 21:11.21 | 2:58.21 | 95346 | 108716 9 | 24:09.42 | 4:54.51 | 108717 | 130817 10 | 29:04.18 | 1:38.61 | 130818 | 138228 11 | 30:43.04 | 4:01.60 | 138229 | 156363 12 | 34:44.64 | 1:54.22 | 156364 | 164935 13 | 36:39.11 | 3:25.73 | 164936 | 180383 14 | 40:05.09 | 1:04.27 | 180384 | 185210

Range status and errors

Selected range

Filename F:\MOJA MUZYKA\WAV\Michal Lorenc - ''Glina'' (limited & extended promo).wav

Peak level 99.0 % Range quality 100.0 % Copy CRC 6BEEC826 Copy OK

No errors occurred

End of status report
1. Tatry (2:07)
2. Kazalnica (4:17)
3. Ave Maria (3:07)
4. Giewont (3:44)
5. Dolina Bialego (3:08)
6. Niebieska Turnia (2:31)
7. Czarny Staw (2:27)
8. Koscielec (4:00)
9. Zawrat (3:19)
10. Dolina Chocholowska (6:01)
11. Ave Maria Instr (3:15)
12. Mnich (2:26)
13. Liptowskie Mury (2:42)
14. Ciemnosmereszynska Turnia (3:32)
15. Rysy (0:41)
16. O Sobie Samym (3:05)
17. Dialog Filmowy (0:43)
18. About Me Alone (3:23)
 
Exact Audio Copy V0.99 prebeta 3 from 28. July 2007

EAC extraction logfile from 23. January 2008, 17:53

Michal Lorenc / Prowokator

Used drive : PLEXTOR CD-R PREMIUM Adapter: 4 ID: 1

Read mode : SecureUtilize accurate stream : YesDefeat audio cache : YesMake use of C2 pointers : No

Read offset correction : 30Overread into Lead-In and Lead-Out : NoFill up missing offset samples with silence : YesDelete leading and trailing silent blocks : NoNull samples used in CRC calculations : YesUsed interface : Installed external ASPI interface

Used output format : Internal WAV RoutinesSample format : 44.100 Hz; 16 Bit; Stereo

TOC of the extracted CD

Track | Start | Length | Start sector | End sector---------------------------------------------------------1 | 0:00.00 | 2:07.34 | 0 | 95582 | 2:07.34 | 4:17.71 | 9559 | 289043 | 6:25.30 | 3:07.30 | 28905 | 429594 | 9:32.60 | 3:44.30 | 42960 | 597895 | 13:17.15 | 3:08.12 | 59790 | 739016 | 16:25.27 | 2:31.33 | 73902 | 852597 | 18:56.60 | 2:27.10 | 85260 | 962948 | 21:23.70 | 4:00.10 | 96295 | 1143049 | 25:24.05 | 3:19.27 | 114305 | 12925610 | 28:43.32 | 6:01.40 | 129257 | 15637111 | 34:44.72 | 3:15.45 | 156372 | 17104112 | 38:00.42 | 2:26.25 | 171042 | 18201613 | 40:26.67 | 2:42.00 | 182017 | 19416614 | 43:08.67 | 3:32.60 | 194167 | 21012615 | 46:41.52 | 0:41.70 | 210127 | 21327116 | 47:23.47 | 3:05.23 | 213272 | 22716917 | 50:28.70 | 0:43.05 | 227170 | 23039918 | 51:12.00 | 3:23.45 | 230400 | 245669

Range status and errors

Selected range

Filename E:\Michal Lorenc - Prowokator\Michal Lorenc - Prowokator.wav

Peak level 99.9 %Range quality 100.0 %Copy CRC BE49FCC0Copy OK

No errors occurred

End of status report
1. W Ciemnosci
2. Biegnac, Biegnac
3. Wszystko
4. Zapomnisz
5. Nagle
6. Ktorych Dotknie
7. Nie
8. Bo
9. Jest
10. Pod Powiekami
11. Zobacz
12. I Wyrosnie Rozdzka Z Pnia Jessego
 
EAC extraction logfile from 29. July 2006, 9:57 for CDMichal Lorenc / ''Symetria''

Used drive : LITE-ON DVDRW SOHW-1693S Adapter: 1 ID: 0Read mode : Secure with NO C2, accurate stream, disable cacheRead offset correction : 12Overread into Lead-In and Lead-Out : No

Used output format : Internal WAV Routines 44.100 Hz; 16 Bit; Stereo

Other options : Fill up missing offset samples with silence : Yes Delete leading and trailing silent blocks : No Installed external ASPI interface

Range status and errorsSelected range Filename F:\MOJA MUZYKA\WAV\CDImage\CDImage.wav

Peak level 98.3 % Range quality 100.0 % CRC FF90D99D Copy OK

No errors occured

End of status report
1. Kiedy Lecial Ptak
2. Noc
3. Kiedy Patrzyli Przez Okno
4. Wieczor
5. Ptaki / Decyzja
6. Pozegnanie
7. Tir
8. Ucieczka
9. Jedrek I Grzes
10. Wypadek
11. Sad
12. Granica
13. Psy, Milicja, Celnicy, Wojsko
14. Japonski Komputer Milicyjny
15. Wjazd Na Prom
16. Brama Promu
17. Prom
18. Pozegnanie Tir-A
19. Zima W Danii
20. Boze Narodzenie
21. Oboz Dla Uchodzcow
22. Choinka
23. Nie Wracajcie Tu Nigdy
24. Fontanna
 
Exact Audio Copy V0.99 prebeta 4 from 23. January 2008

EAC extraction logfile from 7. March 2008, 22:06

Michal Lorenc / 300 mil do nieba

Used drive : PIONEER DVD-RW DVR-109 Adapter: 2 ID: 1

Read mode : SecureUtilize accurate stream : YesDefeat audio cache : YesMake use of C2 pointers : No

Read offset correction : 48Overread into Lead-In and Lead-Out : YesFill up missing offset samples with silence : YesDelete leading and trailing silent blocks : NoNull samples used in CRC calculations : YesUsed interface : Installed external ASPI interface

Used output format : Internal WAV RoutinesSample format : 44.100 Hz; 16 Bit; Stereo

TOC of the extracted CD

Track | Start | Length | Start sector | End sector --------------------------------------------------------- 1 | 0:00.00 | 1:34.49 | 0 | 7098 2 | 1:34.49 | 2:36.21 | 7099 | 18819 3 | 4:10.70 | 1:07.11 | 18820 | 23855 4 | 5:18.06 | 2:19.11 | 23856 | 34291 5 | 7:37.17 | 1:38.00 | 34292 | 41641 6 | 9:15.17 | 1:36.21 | 41642 | 48862 7 | 10:51.38 | 2:34.43 | 48863 | 60455 8 | 13:26.06 | 2:31.11 | 60456 | 71791 9 | 15:57.17 | 2:31.11 | 71792 | 83127 10 | 18:28.28 | 1:19.11 | 83128 | 89063 11 | 19:47.39 | 2:44.64 | 89064 | 101427 12 | 22:32.28 | 0:53.32 | 101428 | 105434 13 | 23:25.60 | 2:19.11 | 105435 | 115870 14 | 25:44.71 | 1:15.53 | 115871 | 121548 15 | 27:00.49 | 0:26.00 | 121549 | 123498 16 | 27:26.49 | 0:58.43 | 123499 | 127891 17 | 28:25.17 | 2:41.32 | 127892 | 139998 18 | 31:06.49 | 2:31.11 | 139999 | 151334 19 | 33:37.60 | 2:29.33 | 151335 | 162542 20 | 36:07.18 | 2:12.21 | 162543 | 172463 21 | 38:19.39 | 1:08.58 | 172464 | 177621 22 | 39:28.22 | 0:36.21 | 177622 | 180342 23 | 40:04.43 | 4:29.32 | 180343 | 200549 24 | 44:34.00 | 1:30.64 | 200550 | 207363

Range status and errors

Selected range

Filename H:\ML-300MDN(wv)\Michal Lorenc - 300 mil do nieba.wav

Peak level 100.0 % Range quality 99.9 % Copy CRC 240A66A3 Copy OK

No errors occurred

End of status report

Мелодичная и очень красивая музыка от известного композитора.
Источник - HQShare.net



Трекер:  [ 08-Июл-2011 17:25 ]

  

Скачать .torrent

Размер .torrent файла 34 KB


Размер: 3.86 GB
Хэш (hash) релиза: 574ea556274b0d45d4e7a4f2c00345392ff37ce1

Еще никто не оставлял запись к записи скачать торрент Michal Lorenc - Собрание сочинений . Будь первым!

!Обратная связь