Скачать через торрент музыку Повар, вор, его жена и ее любовник The Cook, The Thief, His Wife & Her Lover бесплатно без регистрации torrent

Если у вас наблюдаются проблемы со скриншотами, переходом по ссылками, скачиванием торрентов - проблемы в блокировщике рекламы AdBlock. #хорошегоДня!


Статистика раздачи
Размер:  226 MB   |    Зарегистрирован:  6 лет 2 месяца   |    .torrent скачан:  35 раз   |   
Раздают:  1  
   
Загрузка...
 
Автор Сообщение

Galfimbul

avatar Galfimbul


The Cook, The Thief, His Wife & Her Lover (composed by Michael Nyman)

Страна: UK
Жанр: Minimalism, Avant-Garde
Год выпуска: 1989
Формат: FLAC (image + .cue)
Битрейт аудио: lossless
Продолжительность: 40:24.000

Трэклист:

01 Memorial
02 Miserere Paraphrase*
performed by Alexander Balanescu: violin; Michael Nyman: piano
03 Book Depository
04 Coupling
05 Miserere*
performed by London Voices

*performed by Michael Nyman Band
Exact Audio Copy V0.99 prebeta 4 from 23. January 2008

EAC extraction logfile from 1. May 2008, 17:25

Michael Nyman / The Cook The Thief His Wife Her Lover

Used drive : HL-DT-STDVDRAM GSA-E40L Adapter: 5 ID: 0

Read mode : Secure
Utilize accurate stream : Yes
Defeat audio cache : Yes
Make use of C2 pointers : No

Read offset correction : 667
Overread into Lead-In and Lead-Out : No
Fill up missing offset samples with silence : Yes
Delete leading and trailing silent blocks : No
Null samples used in CRC calculations : Yes
Used interface : Native Win32 interface for Win NT & 2000

Used output format : Internal WAV Routines
Sample format : 44.100 Hz; 16 Bit; Stereo

TOC of the extracted CD

Track | Start | Length | Start sector | End sector
---------------------------------------------------------
1 | 0:00.33 | 12:07.07 | 33 | 54564
2 | 12:07.40 | 5:44.15 | 54565 | 80379
3 | 17:51.55 | 5:41.43 | 80380 | 105997
4 | 23:33.23 | 5:17.10 | 105998 | 129782
5 | 28:50.33 | 11:34.00 | 129783 | 181832

Range status and errors

Selected range

Filename C:\Michael Nyman - The Cook The Thief His Wife Her Lover\Michael Nyman - The Cook The Thief His Wife Her Lover.wav

Peak level 100.0 %
Range quality 99.9 %
Test CRC 45B1B3CC
Copy CRC 45B1B3CC
Copy OK

No errors occurred

AccurateRip summary

Track 1 accurately ripped (confidence 7) [FE1F9887]
Track 2 accurately ripped (confidence 6) [DAFEA8F7]
Track 3 accurately ripped (confidence 6) [E5ABED22]
Track 4 accurately ripped (confidence 7) [54C1192E]
Track 5 accurately ripped (confidence 7) [7774964E]

All tracks accurately ripped

End of status report


Трекер:  [ 08-Июл-2011 17:25 ]

  

Скачать .torrent

Размер .torrent файла 18 KB


Размер: 226 MB
Хэш (hash) релиза: 1cc09af66289441fdbd584cf8d3b3ec85b9c425c

Торренты, похожие на Повар, вор, его жена и ее любовник The Cook, The Thief, His Wife & Her Lover скачать торрент

Форум Название Автор Размер S L Добавлен
Саундтреки к фильмам и мультфильмам (lossless) ·· (Score) [LP] [24/96] Повар, вор, его жена и ее любовник / The Cook, The Thief, His Wife & Her Lover (by Michael Nyman) - 1989, FLAC (tracks), lossless Galfimbul 917435169875 MB 0 0 1292270203

22:56

13-Дек-10

Еще никто не оставлял запись к записи скачать торрент Повар, вор, его жена и ее любовник The Cook, The Thief, His Wife & Her Lover . Будь первым!

!Обратная связь