Скачать через торрент музыку Факультет The Faculty - 1998 бесплатно без регистрации torrent

Если у вас наблюдаются проблемы со скриншотами, переходом по ссылками, скачиванием торрентов - проблемы в блокировщике рекламы AdBlock. #хорошегоДня!


Статистика раздачи
Размер:  350 MB   |    Зарегистрирован:  6 лет 2 месяца   |    .torrent скачан:  50 раз   |   
Раздают:  1  
   
Загрузка...
 
Автор Сообщение

Galfimbul

avatar Galfimbul


Факультет / The Faculty

Жанр: Soundtrack
Год выпуска диска: 1998
Производитель диска: USA
Аудио кодек: FLAC
Типа рипа: tracks+.cue
Битрейт аудио: lossless
Продолжительность: 00:51:05

01 - Class Of '99 - Another Brick In The Wall (Part 2)
02 - The Offspring - The Kids Aren't Alright
03 - Creed - I'm Eighteen
04 - D Generation - Helpless
05 - Soul Asylum - School's Out
06 - Garbage - Medication
07 - Stabbing Westward - Haunting Me
08 - Flick - Maybe Someday
09 - Sheryl Crow - Resuscitation
10 - Neve - It's Over Now
11 - Shawn Mullins - Changes
12 - Oasis - Stay Young
13 - Class Of '99 - Another Brick In The Wall (Instrumental)

Источник: what.cd
 
Exact Audio Copy V0.99 prebeta 4 from 23. January 2008

EAC extraction logfile from 29. July 2008, 18:58

Various / The Faculty

Used drive : HL-DT-STDVDRAM GH20NS10 Adapter: 3 ID: 0

Read mode : SecureUtilize accurate stream : YesDefeat audio cache : YesMake use of C2 pointers : No

Read offset correction : 667Overread into Lead-In and Lead-Out : NoFill up missing offset samples with silence : YesDelete leading and trailing silent blocks : NoNull samples used in CRC calculations : YesUsed interface : Native Win32 interface for Win NT & 2000Gap handling : Appended to previous track

Used output format : User Defined EncoderSelected bitrate : 768 kBit/sQuality : HighAdd ID3 tag : NoCommand line compressor : C:\Program Files\FLAC\flac.exeAdditional command line options : -V -8 -T "artist=%a" -T "title=%t" -T "album=%g" -T "date=%y" -T "tracknumber=%n" %s

TOC of the extracted CD

Track | Start | Length | Start sector | End sector --------------------------------------------------------- 1 | 0:00.00 | 4:18.55 | 0 | 19404 2 | 4:18.55 | 2:59.60 | 19405 | 32889 3 | 7:18.40 | 3:11.57 | 32890 | 47271 4 | 10:30.22 | 3:34.65 | 47272 | 63386 5 | 14:05.12 | 3:25.70 | 63387 | 78831 6 | 17:31.07 | 4:08.15 | 78832 | 97446 7 | 21:39.22 | 3:38.63 | 97447 | 113859 8 | 25:18.10 | 3:47.50 | 113860 | 130934 9 | 29:05.60 | 3:59.07 | 130935 | 148866 10 | 33:04.67 | 4:01.10 | 148867 | 166951 11 | 37:06.02 | 3:32.70 | 166952 | 182921 12 | 40:38.72 | 5:08.20 | 182922 | 206041 13 | 45:47.17 | 5:18.58 | 206042 | 229949

Track 1

Filename C:\Hi there RIAA, What's up IFPI\Various Artists - The Faculty\01 - Another Brick In The Wall (Part 2) (Featuring Layne Staley, Tom Morello, Stephen Perkins, Martyn Le Noble & Matt.wav

Pre-gap length 0:00:02.00

Peak level 97.7 % Track quality 100.0 % Test CRC 76CD7D0A Copy CRC 76CD7D0A Accurately ripped (confidence 4) [44A6DD1D] Copy OK

Track 2

Filename C:\Hi there RIAA, What's up IFPI\Various Artists - The Faculty\02 - The Kids Aren't Alright.wav

Peak level 92.2 % Track quality 100.0 % Test CRC FA79055A Copy CRC FA79055A Accurately ripped (confidence 3) [848D0C28] Copy OK

Track 3

Filename C:\Hi there RIAA, What's up IFPI\Various Artists - The Faculty\03 - I'm Eighteen.wav

Peak level 79.4 % Track quality 100.0 % Test CRC C6576509 Copy CRC C6576509 Accurately ripped (confidence 3) [68438EA3] Copy OK

Track 4

Filename C:\Hi there RIAA, What's up IFPI\Various Artists - The Faculty\04 - Helpless.wav

Peak level 84.1 % Track quality 99.9 % Test CRC 1E74F26F Copy CRC 1E74F26F Accurately ripped (confidence 3) [9820D023] Copy OK

Track 5

Filename C:\Hi there RIAA, What's up IFPI\Various Artists - The Faculty\05 - School's Out.wav

Pre-gap length 0:00:00.26

Peak level 89.1 % Track quality 100.0 % Test CRC 60445085 Copy CRC 60445085 Accurately ripped (confidence 4) [3856F5F2] Copy OK

Track 6

Filename C:\Hi there RIAA, What's up IFPI\Various Artists - The Faculty\06 - Medication.wav

Pre-gap length 0:00:03.29

Peak level 86.9 % Track quality 100.0 % Test CRC 80A214E8 Copy CRC 80A214E8 Accurately ripped (confidence 3) [925E174D] Copy OK

Track 7

Filename C:\Hi there RIAA, What's up IFPI\Various Artists - The Faculty\07 - Haunting Me.wav

Pre-gap length 0:00:01.49

Peak level 83.2 % Track quality 99.9 % Test CRC 0E6D0674 Copy CRC 0E6D0674 Accurately ripped (confidence 3) [AADD0B22] Copy OK

Track 8

Filename C:\Hi there RIAA, What's up IFPI\Various Artists - The Faculty\08 - Maybe Someday.wav

Pre-gap length 0:00:02.70

Peak level 96.6 % Track quality 100.0 % Test CRC B5846CF4 Copy CRC B5846CF4 Accurately ripped (confidence 3) [4E8A4347] Copy OK

Track 9

Filename C:\Hi there RIAA, What's up IFPI\Various Artists - The Faculty\09 - Resuscitation.wav

Pre-gap length 0:00:01.17

Peak level 90.1 % Track quality 99.9 % Test CRC 4BEABCA1 Copy CRC 4BEABCA1 Accurately ripped (confidence 4) [52826C31] Copy OK

Track 10

Filename C:\Hi there RIAA, What's up IFPI\Various Artists - The Faculty\10 - It's Over Now.wav

Pre-gap length 0:00:00.09

Peak level 85.1 % Track quality 100.0 % Test CRC A8D6DAF2 Copy CRC A8D6DAF2 Accurately ripped (confidence 3) [96A7E2EE] Copy OK

Track 11

Filename C:\Hi there RIAA, What's up IFPI\Various Artists - The Faculty\11 - Changes.wav

Peak level 92.2 % Track quality 100.0 % Test CRC A56142F5 Copy CRC A56142F5 Accurately ripped (confidence 4) [E68C87E5] Copy OK

Track 12

Filename C:\Hi there RIAA, What's up IFPI\Various Artists - The Faculty\12 - Stay Young.wav

Peak level 73.2 % Track quality 100.0 % Test CRC 8F81A687 Copy CRC 8F81A687 Accurately ripped (confidence 3) [628ED6B3] Copy OK

Track 13

Filename C:\Hi there RIAA, What's up IFPI\Various Artists - The Faculty\13 - Another Brick In The Wall.wav

Pre-gap length 0:00:02.73

Peak level 81.2 % Track quality 100.0 % Test CRC 493DFFEC Copy CRC 493DFFEC Accurately ripped (confidence 4) [4C65C452] Copy OK

All tracks accurately ripped

No errors occurred

End of status report
 
REM DATE 1998REM DISCID 9F0BFA0DREM COMMENT "ExactAudioCopy v0.99pb4"PERFORMER "Various Artists"TITLE "The Faculty"FILE "01 - Another Brick In The Wall (Part 2) (Featuring Layne Staley, Tom Morello, Stephen Perkins, Martyn Le Noble & Matt.flac" WAVE TRACK 01 AUDIO TITLE "Another Brick In The Wall (Part 2) (Featuring Layne Staley, Tom Morello, Step..." PERFORMER "Class Of '99" INDEX 01 00:00:00FILE "02 - The Kids Aren't Alright.flac" WAVE TRACK 02 AUDIO TITLE "The Kids Aren't Alright" PERFORMER "The Offspring" INDEX 01 00:00:00FILE "03 - I'm Eighteen.flac" WAVE TRACK 03 AUDIO TITLE "I'm Eighteen" PERFORMER "Creed" INDEX 01 00:00:00FILE "04 - Helpless.flac" WAVE TRACK 04 AUDIO TITLE "Helpless" PERFORMER "D Generation" INDEX 01 00:00:00 TRACK 05 AUDIO TITLE "School's Out" PERFORMER "Soul Asylum" INDEX 00 03:34:45FILE "05 - School's Out.flac" WAVE INDEX 01 00:00:00 TRACK 06 AUDIO TITLE "Medication" PERFORMER "Garbage" INDEX 00 03:22:48FILE "06 - Medication.flac" WAVE INDEX 01 00:00:00 TRACK 07 AUDIO TITLE "Haunting Me" PERFORMER "Stabbing Westward" INDEX 00 04:06:53FILE "07 - Haunting Me.flac" WAVE INDEX 01 00:00:00 TRACK 08 AUDIO TITLE "Maybe Someday" PERFORMER "Flick" INDEX 00 03:36:10FILE "08 - Maybe Someday.flac" WAVE INDEX 01 00:00:00 TRACK 09 AUDIO TITLE "Resuscitation" PERFORMER "Sheryl Crow" INDEX 00 03:46:37FILE "09 - Resuscitation.flac" WAVE INDEX 01 00:00:00 TRACK 10 AUDIO TITLE "It's Over Now" PERFORMER "Neve" INDEX 00 03:59:00FILE "10 - It's Over Now.flac" WAVE INDEX 01 00:00:00FILE "11 - Changes.flac" WAVE TRACK 11 AUDIO TITLE "Changes" PERFORMER "Shawn Mullins" INDEX 01 00:00:00FILE "12 - Stay Young.flac" WAVE TRACK 12 AUDIO TITLE "Stay Young" PERFORMER "Oasis" INDEX 01 00:00:00 TRACK 13 AUDIO TITLE "Another Brick In The Wall" PERFORMER "Class Of '99" INDEX 00 05:05:40FILE "13 - Another Brick In The Wall.flac" WAVE INDEX 01 00:00:00



Трекер:  [ 08-Июл-2011 17:25 ]

  

Скачать .torrent

Размер .torrent файла 15 KB


Размер: 350 MB
Хэш (hash) релиза: a0e87ba2be2b0de8cc54f697691ff95bd4084ca2

Еще никто не оставлял запись к записи скачать торрент Факультет The Faculty - 1998 . Будь первым!

!Обратная связь