Скачать через торрент музыку Stillwater - Stillwater бесплатно без регистрации torrent

Если у вас наблюдаются проблемы со скриншотами, переходом по ссылками, скачиванием торрентов - проблемы в блокировщике рекламы AdBlock. #хорошегоДня!


Статистика раздачи
Размер:  157 MB   |    Зарегистрирован:  6 лет 2 месяца   |    .torrent скачан:  37 раз   |   
Раздают:  1  
   
Загрузка...
 
Автор Сообщение

Galfimbul

avatar Galfimbul


Stillwater - Stillwater

Жанр: Soundtrack / Rock
Год выпуска диска: 2001
Производитель диска: USA
Аудио кодек: FLAC
Тип рипа: tracks+.cue
Битрейт аудио: lossless
Продолжительность: 00:23:30

01 - Fever Dog (03:10)
02 - Love Thing (04:14)
03 - Chance Upon You (03:49)
04 - Love Comes and Goes (03:49)
05 - Hour of Need (04:36)
06 - You Had To Be There (03:53)

Источник: what.cd
 
Exact Audio Copy V0.99 prebeta 4 from 23. January 2008

EAC extraction logfile from 7. May 2009, 21:41

Stillwater / Stillwater

Used drive : HL-DT-STDVDRAM GH15F Adapter: 1 ID: 0

Read mode : SecureUtilize accurate stream : YesDefeat audio cache : YesMake use of C2 pointers : No

Read offset correction : 667Overread into Lead-In and Lead-Out : NoFill up missing offset samples with silence : YesDelete leading and trailing silent blocks : NoNull samples used in CRC calculations : YesUsed interface : Native Win32 interface for Win NT & 2000Gap handling : Appended to previous track

Used output format : Internal WAV RoutinesSample format : 44.100 Hz; 16 Bit; Stereo

TOC of the extracted CD

Track | Start | Length | Start sector | End sector --------------------------------------------------------- 1 | 0:00.00 | 3:09.55 | 0 | 14229 2 | 3:09.55 | 4:13.60 | 14230 | 33264 3 | 7:23.40 | 3:48.67 | 33265 | 50431 4 | 11:12.32 | 3:48.65 | 50432 | 67596 5 | 15:01.22 | 4:36.25 | 67597 | 88321 6 | 19:37.47 | 3:52.73 | 88322 | 105794

Track 1

Filename J:\Eac Rips\Stillwater - 2001 - Stillwater\01 - Fever Dog.wav

Pre-gap length 0:00:02.00

Peak level 98.8 % Track quality 100.0 % Test CRC E3911D85 Copy CRC E3911D85 Accurately ripped (confidence 19) [D6D77CF2] Copy OK

Track 2

Filename J:\Eac Rips\Stillwater - 2001 - Stillwater\02 - Love Thing.wav

Pre-gap length 0:00:01.60

Peak level 98.8 % Track quality 100.0 % Test CRC 6167BECD Copy CRC 6167BECD Accurately ripped (confidence 19) [BEDA1559] Copy OK

Track 3

Filename J:\Eac Rips\Stillwater - 2001 - Stillwater\03 - Chance Upon You.wav

Pre-gap length 0:00:01.93

Peak level 98.9 % Track quality 100.0 % Test CRC 5BB8E298 Copy CRC 5BB8E298 Accurately ripped (confidence 19) [B00CF6A7] Copy OK

Track 4

Filename J:\Eac Rips\Stillwater - 2001 - Stillwater\04 - Love Comes and Goes.wav

Pre-gap length 0:00:02.53

Peak level 98.8 % Track quality 100.0 % Test CRC F03CB8B5 Copy CRC F03CB8B5 Accurately ripped (confidence 19) [38F0865D] Copy OK

Track 5

Filename J:\Eac Rips\Stillwater - 2001 - Stillwater\05 - Hour of Need.wav

Peak level 95.5 % Track quality 100.0 % Test CRC 94DFB62D Copy CRC 94DFB62D Accurately ripped (confidence 18) [0A360839] Copy OK

Track 6

Filename J:\Eac Rips\Stillwater - 2001 - Stillwater\06 - You Had To Be There.wav

Pre-gap length 0:00:01.02

Peak level 98.8 % Track quality 100.0 % Test CRC 2A44899A Copy CRC 2A44899A Accurately ripped (confidence 17) [C2DF6E26] Copy OK

All tracks accurately ripped

No errors occurred

End of status report
 
REM GENRE RockREM DATE 2001REM DISCID 49058206REM COMMENT "ExactAudioCopy v0.99pb4"FILE "01 - Fever Dog.wav" WAVE TRACK 01 AUDIO INDEX 01 00:00:00 TRACK 02 AUDIO INDEX 00 03:08:10FILE "02 - Love Thing.wav" WAVE INDEX 01 00:00:00 TRACK 03 AUDIO INDEX 00 04:11:65FILE "03 - Chance Upon You.wav" WAVE INDEX 01 00:00:00 TRACK 04 AUDIO INDEX 00 03:46:27FILE "04 - Love Comes and Goes.wav" WAVE INDEX 01 00:00:00FILE "05 - Hour of Need.wav" WAVE TRACK 05 AUDIO INDEX 01 00:00:00 TRACK 06 AUDIO INDEX 00 04:35:23FILE "06 - You Had To Be There.wav" WAVE INDEX 01 00:00:00



Трекер:  [ 08-Июл-2011 17:26 ]

  

Скачать .torrent

Размер .torrent файла 13 KB


Размер: 157 MB
Хэш (hash) релиза: 4089f5e24e51c5b57e66ca283418be3254a1f985

Торренты, похожие на Stillwater - Stillwater скачать торрент

Форум Название Автор Размер S L Добавлен
Rосk | Mеtаl | Аltеrnаtivе, Рunk, Indереndеnt (mр3) ·· (Hard Rock) Stillwater - Runnin' Free - 1998, MP3 (tracks), 256 kbps Galfimbul 109516665104 MB 2 0 1504971271

18:34

9-Сен-17

Rосk | Mеtаl | Аltеrnаtivе, Рunk, Indереndеnt (mр3) ·· (Hard Rock) Stillwater - I Reserve The Right! - 1978, MP3 (tracks), 192 kbps Galfimbul 4947962347 MB 0 0 1504138038

03:07

31-Авг-17

Еще никто не оставлял запись к записи скачать торрент Stillwater - Stillwater . Будь первым!

!Обратная связь