Скачать через торрент музыку Zoolander OST Образцовый Самец бесплатно без регистрации torrent

Если у вас наблюдаются проблемы со скриншотами, переходом по ссылками, скачиванием торрентов - проблемы в блокировщике рекламы AdBlock. #хорошегоДня!


Статистика раздачи
Размер:  455 MB   |    Зарегистрирован:  6 лет 2 месяца   |    .torrent скачан:  64 раза   |   
Раздают:  1  
   
Загрузка...
 
Автор Сообщение

Galfimbul

avatar Galfimbul


Zoolander OST / Образцовый Самец

Жанр: Soundtrack
Дата Релиза: 25.09.2001
Производитель Диска: USA
Издатель: Hollywood Records
Аудио Кодек: FLAC
Тип Рипа: image+.cue
Битрейт Аудио: lossless
Продолжительность:1:03:00
Трэклист:

01 - Start The Commotion (The Wiseguys Feat. Greg Nice) (2:35)
02 - Relax (Frankie Goes To Hollywood) (3:56)
03 - Call Me (Nikka Costa) (4:08)
04 - Love To Love You Baby (No Doubt) (4:22)
05 - I Started A Joke (The Wallflowers) (3:08)
06 - He Ain't Heavy... He's My Brother (Rufus Wainwright) (4:38)
07 - Wake Me Up Before You Go-Go (Wham!) (3:51)
08 - Rockit (Herbie Hancock) (5:26)
09 - Beat It (Moby's Sub Mix) (Michael Jackson) (6:13)
10 - Madskillz-Mic Chekka (Remix) (BT) (5:50)
11 - Faces (Orgy) (4:28)
12 - Ruffneck (Freestylers Feat. Navigator) (5:43)
13 - Now Is The Time (The Crystal Method) (5:37)
14 - Relax (Powerman 5000) (3:05)
 
Exact Audio Copy V0.99 prebeta 5 from 4. May 2009

EAC extraction logfile from 2. December 2009, 1:16

Various / Zoolander OST

Used drive : _NEC DVD_RW ND-4550A Adapter: 1 ID: 0

Read mode : SecureUtilize accurate stream : YesDefeat audio cache : YesMake use of C2 pointers : No

Read offset correction : 48Overread into Lead-In and Lead-Out : NoFill up missing offset samples with silence : YesDelete leading and trailing silent blocks : NoNull samples used in CRC calculations : YesUsed interface : Native Win32 interface for Win NT & 2000

Used output format : User Defined EncoderSelected bitrate : 1024 kBit/sQuality : HighAdd ID3 tag : NoCommand line compressor : C:\Program Files\Exact Audio Copy\Flac\flac.exeAdditional command line options : -T "DATE=%y" -T "GENRE=%m" -8 -V %s

TOC of the extracted CD

Track | Start | Length | Start sector | End sector --------------------------------------------------------- 1 | 0:00.00 | 2:35.07 | 0 | 11631 2 | 2:35.07 | 3:56.25 | 11632 | 29356 3 | 6:31.32 | 4:08.03 | 29357 | 47959 4 | 10:39.35 | 4:22.45 | 47960 | 67654 5 | 15:02.05 | 3:08.62 | 67655 | 81816 6 | 18:10.67 | 4:38.43 | 81817 | 102709 7 | 22:49.35 | 3:51.52 | 102710 | 120086 8 | 26:41.12 | 5:26.03 | 120087 | 144539 9 | 32:07.15 | 6:13.22 | 144540 | 172536 10 | 38:20.37 | 5:50.30 | 172537 | 198816 11 | 44:10.67 | 4:28.15 | 198817 | 218931 12 | 48:39.07 | 5:43.00 | 218932 | 244656 13 | 54:22.07 | 5:37.43 | 244657 | 269974 14 | 59:59.50 | 3:05.27 | 269975 | 283876

Range status and errors

Selected range

Filename E:\Converter\Various Artists - Zoolander OST.wav

Peak level 97.5 % Range quality 100.0 % Test CRC 199927DA Copy CRC 199927DA Copy OK

No errors occurred

AccurateRip summary

Track 1 accurately ripped (confidence 8) [B20FDF5D]Track 2 accurately ripped (confidence 8) [3A18860D]Track 3 accurately ripped (confidence 8) [435644C1]Track 4 accurately ripped (confidence 8) [19E4CBB4]Track 5 accurately ripped (confidence 8) [CBA6F958]Track 6 accurately ripped (confidence 8) [07D9C849]Track 7 accurately ripped (confidence 8) [0E9F83D0]Track 8 accurately ripped (confidence 8) [06DD6966]Track 9 accurately ripped (confidence 8) [26134A20]Track 10 accurately ripped (confidence 7) [2F20B9B1]Track 11 accurately ripped (confidence 7) [B6E05318]Track 12 accurately ripped (confidence 8) [B91FC26C]Track 13 accurately ripped (confidence 8) [FDB1030A]Track 14 accurately ripped (confidence 8) [E8B1CC80]

All tracks accurately ripped

End of status report
Soundtrack к комедийному фильму Zoolander (Образцовый Самец). В данную компиляцию вошли такие треки, как: Powerman 5000 - Relax, Orgy - Faces и No Doubt - Love To Love You Baby.
P.S. - Рип с оригинального диска.

Powerman 5000, Orgy, No Doubt, The Wallflowers, The Crystal Method, Michael Jackson/Moby, Wham!, Frankie Goes To Hollywood...

Трекер:  [ 08-Июл-2011 13:26 ]

  

Скачать .torrent

Размер .torrent файла 18 KB


Размер: 455 MB
Хэш (hash) релиза: c89e6de68bbd246318cb6bc7bfb81e20efe25aa5

Еще никто не оставлял запись к записи скачать торрент Zoolander OST Образцовый Самец . Будь первым!

!Обратная связь