Скачать через торрент музыку Красная Палатка La Tenda Rossa бесплатно без регистрации torrent

Если у вас наблюдаются проблемы со скриншотами, переходом по ссылками, скачиванием торрентов - проблемы в блокировщике рекламы AdBlock. #хорошегоДня!


Статистика раздачи
Размер:  213 MB   |    Зарегистрирован:  6 лет 2 месяца   |    .torrent скачан:  38 раз   |   
Раздают:  1  
   
Загрузка...
 
Автор Сообщение

Galfimbul

avatar Galfimbul


Красная Палатка / La Tenda Rossa / The Red Tent (Ennio Morricone)

Жанр: Score
Композитор: Ennio Morricone
Год выпуска диска: 1994
Аудио кодек: WAVPack
Тип рипа: image+.cue
Битрейт аудио: lossless
Продолжительность: 00:41:08

Трэклист:

1. Tema D'amore / Love Theme (03:31)
2. La tenda rossa / Do Dreams Go On (02:30)
3. Morte al Polo / Death at the Pole (04:11)
4. Un amore come la neve / A Love Like the Snow (02:12)
5. Messagio da Roma / Message from Rome (01:40)
6. Sono vivi / They're Alive (01:39)
7. Addio / Farewell (02:51)
8. Altri, dopo di noi / Others, Who Will Follow Us (22:20)
Exact Audio Copy V0.99 prebeta 5 from 4. May 2009

EAC extraction logfile from 11. October 2009, 8:48

Ennio Morricone / La Tenda Rossa

Used drive : TSSTcorpCD/DVDW SH-S182D Adapter: 3 ID: 0

Read mode : Secure
Utilize accurate stream : Yes
Defeat audio cache : Yes
Make use of C2 pointers : No

Read offset correction : 6
Overread into Lead-In and Lead-Out : No
Fill up missing offset samples with silence : Yes
Delete leading and trailing silent blocks : No
Null samples used in CRC calculations : Yes
Used interface : Native Win32 interface for Win NT & 2000

Used output format : User Defined Encoder
Selected bitrate : 768 kBit/s
Quality : High
Add ID3 tag : No
Command line compressor : C:\wavpack-4.50\wavpack.exe
Additional command line options : -w "Artist=%a" -w "Album=%g" -w "Year=%y" -w "Genre=%m" -hh -m -t %s %d

TOC of the extracted CD

Track | Start | Length | Start sector | End sector
---------------------------------------------------------
1 | 0:00.00 | 3:33.72 | 0 | 16046
2 | 3:33.72 | 2:31.45 | 16047 | 27416
3 | 6:05.42 | 4:13.15 | 27417 | 46406
4 | 10:18.57 | 2:14.35 | 46407 | 56491
5 | 12:33.17 | 1:42.03 | 56492 | 64144
6 | 14:15.20 | 1:41.12 | 64145 | 71731
7 | 15:56.32 | 2:53.35 | 71732 | 84741
8 | 18:49.67 | 22:18.20 | 84742 | 185111

Range status and errors

Selected range

Filename D:\bula\Параллелепипед\Ennio Morricone - La Tenda Rossa (The Red Tent) 1970\Ennio Morricone - La Tenda Rossa.wav

Peak level 96.4 %
Range quality 100.0 %
Test CRC C2A8E992
Copy CRC C2A8E992
Copy OK

No errors occurred

AccurateRip summary

Track 1 not present in database
Track 2 not present in database
Track 3 not present in database
Track 4 not present in database
Track 5 not present in database
Track 6 not present in database
Track 7 not present in database
Track 8 not present in database

None of the tracks are present in the AccurateRip database

End of status report


Трекер:  [ 08-Июл-2011 13:26 ]

  

Скачать .torrent

Размер .torrent файла 17 KB


Размер: 213 MB
Хэш (hash) релиза: 29319c41f88f23c7838877daa45cdc09202b5e77

Торренты, похожие на Красная Палатка La Tenda Rossa скачать торрент

Форум Название Автор Размер S L Добавлен
Саундтреки к фильмам и мультфильмам (mp3) ·· (Score) Красная палатка / La Tenda Rossa / The Red Tent (by Ennio Morricone & Александр Зацепин) - 2007 (1969), MP3, 192 kbps Galfimbul 8851473284 MB 0 0 1321366852

17:20

15-Ноя-11

Еще никто не оставлял запись к записи скачать торрент Красная Палатка La Tenda Rossa . Будь первым!

!Обратная связь