Скачать через торрент музыку Rob Dougan - DVD бесплатно без регистрации torrent

Если у вас наблюдаются проблемы со скриншотами, переходом по ссылками, скачиванием торрентов - проблемы в блокировщике рекламы AdBlock. #хорошегоДня!


Статистика раздачи
Размер:  761 MB   |    Зарегистрирован:  4 года 7 месяцев   |    .torrent скачан:  27 раз   |   
Раздают:  1  
   
Загрузка...
 
Автор Сообщение

Galfimbul

avatar Galfimbul


Rob Dougan - DVD
Страна: US
Жанр: Downtempo
Продолжительность: 00:15:28
Год выпуска: 2003
Лейбл: Warner Reprise Video
Наличие сканов в содержимом раздачи: да (600 dpi)
Релизер: Собственный диск
Номер по каталогу: 1620-0050 F2

Треклист:
03:27 Clubbed To Death (Video directed by David Slade)
04:01 Furious Angels (Video directed by Howard Greenhalgh)
08:00 Interview

Разбивка на главы по трекам: нет
Качество : DVD5
Формат: DVD video
Видео кодек: MPEG2
Аудио кодек: MP2
Видео: MPEG Video, 720x480 pixels, 4x3, 6200 kbps, 29.970 fps
Аудио: MPEG Audio, 224 Kbps, 48.0 KHz, 2 channels
GeneralComplete name : D:\Uploading\Rob Dougan - Promo DVD\VIDEO_TS\VTS_01_1.VOBFormat : MPEG-PSFile size : 205 MiBDuration : 3mn 27sOverall bit rate : 8 293 Kbps

VideoID : 224 (0xE0)Format : MPEG VideoFormat version : Version 2Format profile : Main@MainFormat settings, BVOP : YesFormat settings, Matrix : DefaultDuration : 3mn 27sBit rate mode : VariableBit rate : 6 592 KbpsNominal bit rate : 8 260 KbpsWidth : 720 pixelsHeight : 480 pixelsDisplay aspect ratio : 4:3Frame rate : 29.970 fpsStandard : NTSCColor space : YUVChroma subsampling : 4:2:0Bit depth : 8 bitsScan type : InterlacedScan order : Top Field FirstCompression mode : LossyBits/(Pixel*Frame) : 0.636Stream size : 163 MiB (79%)

AudioID : 160 (0xA0)Format : PCMFormat settings, Endianness : BigFormat settings, Sign : SignedMuxing mode : DVD-VideoDuration : 3mn 27sBit rate mode : ConstantBit rate : 1 536 KbpsChannel(s) : 2 channelsChannel positions : Front: L RSampling rate : 48.0 KHzBit depth : 16 bitsStream size : 38.0 MiB (19%)

Menu


Трекер:  [ 19-Мар-2013 18:20 ]

  

Скачать .torrent

Размер .torrent файла 16 KB


Размер: 761 MB
Хэш (hash) релиза: 7944827a7ac097c6d8d835ba51d17aa8876d7975

Торренты, похожие на Rob Dougan - DVD скачать торрент

Форум Название Автор Размер S L Добавлен
Электронная музыка (video) ·· Rob Dougan - Clubbed To Death [1995 г., Electronic, Classical, DVD] Galfimbul 178528256170 MB 0 0 1294845833

18:23

12-Янв-11

Электронная музыка (video) ·· Rob Dougan - 2X Music Videos (Clubbed To Death, Furious Angels) [2002-2003 г., Electronic, Classical, DVD-VOB] Galfimbul 441522176421 MB 0 0 1294845572

18:19

12-Янв-11

Электронная музыка (video) ·· Rob Dougan - Promo DVD [2003, Downtempo, DVD5] _N_ 762470400727 MB 0 0 1294835835

15:37

12-Янв-11

Еще никто не оставлял запись к записи скачать торрент Rob Dougan - DVD . Будь первым!

!Обратная связь