Скачать через торрент музыку Ennio Morricone - Deluxe Edition бесплатно без регистрации torrent

Если у вас наблюдаются проблемы со скриншотами, переходом по ссылками, скачиванием торрентов - проблемы в блокировщике рекламы AdBlock. #хорошегоДня!


Статистика раздачи
Размер:  709 MB   |    Зарегистрирован:  6 лет 2 месяца   |    .torrent скачан:  45 раз   |   
Раздают:  1  
   
Загрузка...
 
Автор Сообщение

Galfimbul

avatar Galfimbul


Ennio Morricone - Deluxe Edition

Жанр: Score
Год выпуска диска: 2006
Аудио кодек: WAVPack
Тип рипа: image+.cue
Битрейт аудио: lossless
Продолжительность: 02:20:19
Источник: ed2k
01. L'Assoluto Naturale
02. Sembravi Desiderare
03. Sauna
04. Metti Una Sera A Cena
05. Indagine
06. Miraggio
07. Piume Di Cristallo
08. Violenza Inattesa
09. Come Un Miracolo
10. Sospesi Tra Le Nuvole
11. Come Un Madrigale
12. 4 Mosche Di Velluto Grigio (Titoli)
13. Lei Se Ne More
14. Anche Se Volessi Lavorare Che Faccio
15. La Cosa Buffa
16. Come Giulietta E Romeo
17. Ultimo Atto
18. Verso La Frontiera
19. Coincidenze (Alternate Take)
20. L'Ultimo Treno Della Notte
01. Giu La Testa
02. Marcia Degli Accattoni
03. La Donna Della Domenica
04. Torino Di Notte
05. Accadde A Venezia
06. L'Addio Tra Linda E Tullio
07. Tema Di Francesca
08. La Moglie Piu Bella
09. Cosм Come Sei
10. A Nastassia
11. Il Gatto
12. L'Attico Illuminato
13. Giocattolo
14. Una Tenera Moglie
15. Un Sacco Bello
16. Un Salotto Borghese
17. Non Fare L'Indiano
18. L'Estasi Del Miracolo
19. Bianco, Rosso E Verdone
20. Autostrada
 
Exact Audio Copy V0.99 prebeta 4 from 23. January 2008

EAC extraction logfile from 4. April 2008, 19:10

Ennio Morricone / Ennio Morricone Deluxe Edition (CD1)

Used drive : LITE-ON DVDRW SHW-1635S Adapter: 0 ID: 0

Read mode : SecureUtilize accurate stream : YesDefeat audio cache : YesMake use of C2 pointers : No

Read offset correction : 6Overread into Lead-In and Lead-Out : NoFill up missing offset samples with silence : YesDelete leading and trailing silent blocks : NoNull samples used in CRC calculations : YesUsed interface : Installed external ASPI interface

Used output format : Internal WAV RoutinesSample format : 44.100 Hz; 16 Bit; Stereo

TOC of the extracted CD

Track | Start | Length | Start sector | End sector --------------------------------------------------------- 1 | 0:00.00 | 3:41.68 | 0 | 16642 2 | 3:41.68 | 2:43.36 | 16643 | 28903 3 | 6:25.29 | 4:57.03 | 28904 | 51181 4 | 11:22.32 | 4:31.03 | 51182 | 71509 5 | 15:53.35 | 4:31.46 | 71510 | 91880 6 | 20:25.06 | 3:24.26 | 91881 | 107206 7 | 23:49.32 | 5:18.11 | 107207 | 131067 8 | 29:07.43 | 4:12.07 | 131068 | 149974 9 | 33:19.50 | 2:17.40 | 149975 | 160289 10 | 35:37.15 | 3:49.31 | 160290 | 177495 11 | 39:26.46 | 3:43.00 | 177496 | 194220 12 | 43:09.46 | 3:20.54 | 194221 | 209274 13 | 46:30.25 | 4:43.02 | 209275 | 230501 14 | 51:13.27 | 2:59.64 | 230502 | 243990 15 | 54:13.16 | 3:13.23 | 243991 | 258488 16 | 57:26.39 | 2:24.43 | 258489 | 269331 17 | 59:51.07 | 3:28.40 | 269332 | 284971 18 | 63:19.47 | 2:15.01 | 284972 | 295097 19 | 65:34.48 | 5:02.20 | 295098 | 317767 20 | 70:36.68 | 5:07.11 | 317768 | 340803

Range status and errors

Selected range

Filename E:\Ennio Morricone - Ennio Morricone Deluxe Edition (CD1)\Ennio Morricone Deluxe Edition (CD1).wav

Peak level 100.0 % Range quality 100.0 % Copy CRC 8E0ACE53 Copy OK

No errors occurred

End of status report
 
Exact Audio Copy V0.99 prebeta 4 from 23. January 2008

EAC extraction logfile from 4. April 2008, 20:18

Ennio Morricone / Ennio Morricone Deluxe Edition (CD2)

Used drive : LITE-ON DVDRW SHW-1635S Adapter: 0 ID: 0

Read mode : SecureUtilize accurate stream : YesDefeat audio cache : YesMake use of C2 pointers : No

Read offset correction : 6Overread into Lead-In and Lead-Out : NoFill up missing offset samples with silence : YesDelete leading and trailing silent blocks : NoNull samples used in CRC calculations : YesUsed interface : Installed external ASPI interface

Used output format : Internal WAV RoutinesSample format : 44.100 Hz; 16 Bit; Stereo

TOC of the extracted CD

Track | Start | Length | Start sector | End sector --------------------------------------------------------- 1 | 0:00.00 | 4:21.46 | 0 | 19620 2 | 4:21.46 | 4:58.49 | 19621 | 42019 3 | 9:20.20 | 3:23.67 | 42020 | 57311 4 | 12:44.12 | 2:29.17 | 57312 | 68503 5 | 15:13.29 | 2:39.20 | 68504 | 80448 6 | 17:52.49 | 2:44.72 | 80449 | 92820 7 | 20:37.46 | 2:57.73 | 92821 | 106168 8 | 23:35.44 | 2:16.12 | 106169 | 116380 9 | 25:51.56 | 3:55.02 | 116381 | 134007 10 | 29:46.58 | 4:41.50 | 134008 | 155132 11 | 34:28.33 | 3:10.53 | 155133 | 169435 12 | 37:39.11 | 1:59.37 | 169436 | 178397 13 | 39:38.48 | 4:56.58 | 178398 | 200655 14 | 44:35.31 | 3:53.03 | 200656 | 218133 15 | 48:28.34 | 3:03.54 | 218134 | 231912 16 | 51:32.13 | 3:10.40 | 231913 | 246202 17 | 54:42.53 | 3:28.25 | 246203 | 261827 18 | 58:11.03 | 3:00.00 | 261828 | 275327 19 | 61:11.03 | 2:18.30 | 275328 | 285707 20 | 63:29.33 | 1:21.42 | 285708 | 291824

Range status and errors

Selected range

Filename E:\Ennio Morricone - Ennio Morricone Deluxe Edition (CD2)\Ennio Morricone Deluxe Edition (CD2).wav

Peak level 100.0 % Range quality 100.0 % Copy CRC DB9CAEFB Copy OK

No errors occurred

End of status report


Трекер:  [ 08-Июл-2011 13:27 ]

  

Скачать .torrent

Размер .torrent файла 15 KB


Размер: 709 MB
Хэш (hash) релиза: 9840da991a47ac753f4aa269cf5cffdfa084d180

Еще никто не оставлял запись к записи скачать торрент Ennio Morricone - Deluxe Edition . Будь первым!

!Обратная связь