Скачать через торрент музыку 12 Monkeys 12 обезьян бесплатно без регистрации torrent

Если у вас наблюдаются проблемы со скриншотами, переходом по ссылками, скачиванием торрентов - проблемы в блокировщике рекламы AdBlock. #хорошегоДня!


Статистика раздачи
Размер:  308 MB   |    Зарегистрирован:  6 лет 2 месяца   |    .torrent скачан:  50 раз   |   
Раздают:  1  
   
Загрузка...
 
Автор Сообщение

Galfimbul

avatar Galfimbul


12 Monkeys / 12 обезьян
Жанр: SoundTrack
Год выпуска диска: 1995
Производитель диска: USA
Аудио кодек: FLAC
Тип рипа: tracks+.cue
Битрейт аудио: lossless
Продолжительность: 1:02:09
01. Studio Orchestra - Introduccion from Suite Punta del Este
02. Studio Orchestra - Cole's First Dream / Volunteer Duty / Topside
03. Studio Choir - Silent Night
04. Studio Orchestra - Spider Research / Introduccion (We Did It) / The Proposition
05. Studio Orchestra - Time Confusion / To the Mental Ward / Planet Ogo
06. Studio Orchestra - Wrong Number / Cole's Second Dream / Dormitory Spider / Introduccion (Twin Mo...
07. Charles Olins - Vivisection
08. B.J. Cole - Sleepwalk
09. Studio Orchestra - Introduccion (Escape to Nowhere) / Scanner Room / Capture and Sedation
10. Studio Orchestra - Cole's Third Dream
11. Studio Orchestra - Interrogation / Time Capsule / Cole Kidnaps Railly
12. Fats Domino - Blueberry Hill
13. Louis Armstrong - What a Wonderful World
14. Studio Orchestra - Cole's Fourth Dream
15. Link Wray and The Wraymen - Comanche
16. Tom Waits - Earth Died Screaming
17. Studio Orchestra - Introduccion (Quest for Twelve Monkeys)
18. Studio Orchestra - Fateful Bullet / A Boot from the Trunk / Cole's Longing
19. Studio Orchestra - Photo Search / Mission Brief
20. Studio Orchestra - Back in '96
21. Studio Orchestra - Fugitives / Fateful Love / Home Dentistry
22. Studio Orchestra - Introduccion (12 Monkeys Theme Reprise) / Giraffes & Flamingos
23. Studio Orchestra - This Is My Dream / Cole's Call / Louis & Jose
24. Studio Orchestra - Peters Does His Worst
25. Studio Orchestra - Dreamers Awake

Exact Audio Copy V0.99 prebeta 5 from 4. May 2009

EAC extraction logfile from 5. August 2009, 11:43

Various / 12 Monkeys

Used drive : Optiarc DVD RW AD-7170A Adapter: 0 ID: 0

Read mode : Secure
Utilize accurate stream : Yes
Defeat audio cache : Yes
Make use of C2 pointers : No

Read offset correction : 48
Overread into Lead-In and Lead-Out : No
Fill up missing offset samples with silence : Yes
Delete leading and trailing silent blocks : No
Null samples used in CRC calculations : Yes
Used interface : Native Win32 interface for Win NT & 2000
Gap handling : Appended to previous track

Used output format : User Defined Encoder
Selected bitrate : 320 kBit/s
Quality : High
Add ID3 tag : No
Command line compressor : C:\Program Files\Exact Audio Copy\Flac\flac.exe
Additional command line options : -8 -V -T "ARTIST=%a" -T "TITLE=%t" -T "ALBUM=%g" -T "DATE=%y" -T "TRACKNUMBER=%n" -T "GENRE=%m" -T "COMMENT=EAC FLAC -8" %s

TOC of the extracted CD

Track | Start | Length | Start sector | End sector
---------------------------------------------------------
1 | 0:00.00 | 0:53.20 | 0 | 3994
2 | 0:53.20 | 3:11.33 | 3995 | 18352
3 | 4:04.53 | 1:07.42 | 18353 | 23419
4 | 5:12.20 | 1:58.50 | 23420 | 32319
5 | 7:10.70 | 1:52.60 | 32320 | 40779
6 | 9:03.55 | 3:32.45 | 40780 | 56724
7 | 12:36.25 | 1:19.63 | 56725 | 62712
8 | 13:56.13 | 2:23.12 | 62713 | 73449
9 | 16:19.25 | 3:32.35 | 73450 | 89384
10 | 19:51.60 | 0:20.58 | 89385 | 90942
11 | 20:12.43 | 4:55.42 | 90943 | 113109
12 | 25:08.10 | 2:19.45 | 113110 | 123579
13 | 27:27.55 | 2:18.23 | 123580 | 133952
14 | 29:46.03 | 0:26.42 | 133953 | 135944
15 | 30:12.45 | 2:03.63 | 135945 | 145232
16 | 32:16.33 | 3:36.00 | 145233 | 161432
17 | 35:52.33 | 4:33.55 | 161433 | 181962
18 | 40:26.13 | 3:04.22 | 181963 | 195784
19 | 43:30.35 | 1:27.30 | 195785 | 202339
20 | 44:57.65 | 2:06.10 | 202340 | 211799
21 | 47:04.00 | 3:22.13 | 211800 | 226962
22 | 50:26.13 | 1:04.07 | 226963 | 231769
23 | 51:30.20 | 3:13.40 | 231770 | 246284
24 | 54:43.60 | 3:51.68 | 246285 | 263677
25 | 58:35.53 | 3:33.52 | 263678 | 279704

Track 1

Filename K:\SoundTrack_12 Monkeys\01. Studio Orchestra – Introduccion from Suite Punta del Este.wav

Pre-gap length 0:00:02.00

Peak level 100.0 %
Track quality 100.0 %
Test CRC 1E1A09F0
Copy CRC 1E1A09F0
Copy OK

Track 2

Filename K:\SoundTrack_12 Monkeys\02. Studio Orchestra – Cole's First Dream , Volunteer Duty , Topside.wav

Peak level 100.0 %
Track quality 100.0 %
Test CRC 2537065C
Copy CRC 2537065C
Copy OK

Track 3

Filename K:\SoundTrack_12 Monkeys\03. Studio Choir – Silent Night.wav

Peak level 87.3 %
Track quality 100.0 %
Test CRC A180AC7B
Copy CRC A180AC7B
Copy OK

Track 4

Filename K:\SoundTrack_12 Monkeys\04. Studio Orchestra – Spider Research , Introduccion (We Did It) , The Proposition.wav

Peak level 100.0 %
Track quality 100.0 %
Test CRC E356AE71
Copy CRC E356AE71
Copy OK

Track 5

Filename K:\SoundTrack_12 Monkeys\05. Studio Orchestra – Time Confusion , To the Mental Ward , Planet Ogo.wav

Peak level 99.9 %
Track quality 100.0 %
Test CRC 8858B541
Copy CRC 8858B541
Copy OK

Track 6

Filename K:\SoundTrack_12 Monkeys\06. Studio Orchestra – Wrong Number , Cole's Second Dream , Dormitory Spider , Introduccion (Twin Moons Tango).wav

Peak level 100.0 %
Track quality 100.0 %
Test CRC 404E3A04
Copy CRC 404E3A04
Copy OK

Track 7

Filename K:\SoundTrack_12 Monkeys\07. Charles Olins – Vivisection.wav

Peak level 59.8 %
Track quality 100.0 %
Test CRC 39716C73
Copy CRC 39716C73
Copy OK

Track 8

Filename K:\SoundTrack_12 Monkeys\08. B.J. Cole – Sleepwalk.wav

Peak level 89.1 %
Track quality 100.0 %
Test CRC A7D23E49
Copy CRC A7D23E49
Copy OK

Track 9

Filename K:\SoundTrack_12 Monkeys\09. Studio Orchestra – Introduccion (Escape to Nowhere) , Scanner Room , Capture and Sedation.wav

Peak level 100.0 %
Track quality 100.0 %
Test CRC 8ECD3B6D
Copy CRC 8ECD3B6D
Copy OK

Track 10

Filename K:\SoundTrack_12 Monkeys\10. Studio Orchestra – Cole's Third Dream.wav

Peak level 32.7 %
Track quality 100.0 %
Test CRC 6640C987
Copy CRC 6640C987
Copy OK

Track 11

Filename K:\SoundTrack_12 Monkeys\11. Studio Orchestra – Interrogation , Time Capsule , Cole Kidnaps Railly.wav

Peak level 100.0 %
Track quality 100.0 %
Test CRC 8254EC09
Copy CRC 8254EC09
Copy OK

Track 12

Filename K:\SoundTrack_12 Monkeys\12. Fats Domino – Blueberry Hill.wav

Peak level 94.0 %
Track quality 100.0 %
Test CRC 61BF70C1
Copy CRC 61BF70C1
Copy OK

Track 13

Filename K:\SoundTrack_12 Monkeys\13. Louis Armstrong – What a Wonderful World.wav

Peak level 76.8 %
Track quality 100.0 %
Test CRC F2347864
Copy CRC F2347864
Copy OK

Track 14

Filename K:\SoundTrack_12 Monkeys\14. Studio Orchestra – Cole's Fourth Dream.wav

Peak level 21.7 %
Track quality 99.5 %
Test CRC 412D3ECA
Copy CRC 412D3ECA
Copy OK

Track 15

Filename K:\SoundTrack_12 Monkeys\15. Link Wray and The Wraymen – Comanche.wav

Peak level 99.7 %
Track quality 99.9 %
Test CRC 645B1EBA
Copy CRC 645B1EBA
Copy OK

Track 16

Filename K:\SoundTrack_12 Monkeys\16. Tom Waits – Earth Died Screaming.wav

Peak level 100.0 %
Track quality 100.0 %
Test CRC F1E8AB74
Copy CRC F1E8AB74
Copy OK

Track 17

Filename K:\SoundTrack_12 Monkeys\17. Studio Orchestra – Introduccion (Quest for Twelve Monkeys).wav

Peak level 100.0 %
Track quality 100.0 %
Test CRC 6679DA4B
Copy CRC 6679DA4B
Copy OK

Track 18

Filename K:\SoundTrack_12 Monkeys\18. Studio Orchestra – Fateful Bullet , A Boot from the Trunk , Cole's Longing.wav

Peak level 100.0 %
Track quality 99.9 %
Test CRC 7D1EF421
Copy CRC 7D1EF421
Copy OK

Track 19

Filename K:\SoundTrack_12 Monkeys\19. Studio Orchestra – Photo Search , Mission Brief.wav

Peak level 100.0 %
Track quality 100.0 %
Test CRC FE91AD73
Copy CRC FE91AD73
Copy OK

Track 20

Filename K:\SoundTrack_12 Monkeys\20. Studio Orchestra – Back in '96.wav

Peak level 100.0 %
Track quality 100.0 %
Test CRC BCEF4CF0
Copy CRC BCEF4CF0
Copy OK

Track 21

Filename K:\SoundTrack_12 Monkeys\21. Studio Orchestra – Fugitives , Fateful Love , Home Dentistry.wav

Peak level 100.0 %
Track quality 100.0 %
Test CRC D63D904A
Copy CRC D63D904A
Copy OK

Track 22

Filename K:\SoundTrack_12 Monkeys\22. Studio Orchestra – Introduccion (12 Monkeys Theme Reprise) , Giraffes & Flamingos.wav

Peak level 100.0 %
Track quality 99.8 %
Test CRC D90FCA07
Copy CRC D90FCA07
Copy OK

Track 23

Filename K:\SoundTrack_12 Monkeys\23. Studio Orchestra – This Is My Dream , Cole's Call , Louis & Jose.wav

Peak level 100.0 %
Track quality 100.0 %
Test CRC 03FC0681
Copy CRC 03FC0681
Copy OK

Track 24

Filename K:\SoundTrack_12 Monkeys\24. Studio Orchestra – Peters Does His Worst.wav

Peak level 96.3 %
Track quality 100.0 %
Test CRC 43393709
Copy CRC 43393709
Copy OK

Track 25

Filename K:\SoundTrack_12 Monkeys\25. Studio Orchestra – Dreamers Awake.wav

Peak level 81.1 %
Track quality 100.0 %
Test CRC 7A78F45A
Copy CRC 7A78F45A
Copy OK

No errors occurred

End of status report


Трекер:  [ 08-Июл-2011 13:29 ]

  

Скачать .torrent

Размер .torrent файла 15 KB


Размер: 308 MB
Хэш (hash) релиза: c4abfc7f347a6e8035a62897fc35b6b39cb227dd

Торренты, похожие на 12 Monkeys 12 обезьян скачать торрент

Форум Название Автор Размер S L Добавлен
Саундтреки к фильмам и мультфильмам (mp3) ·· (Soundtrack) 12 Monkeys (Twelve Monkeys) / 12 обезьян (Двенадцать обезьян) - 1995, MP3, 320 kbps Galfimbul 163951791156 MB 0 0 1292265785

21:43

13-Дек-10

Еще никто не оставлял запись к записи скачать торрент 12 Monkeys 12 обезьян . Будь первым!

!Обратная связь