Скачать через торрент музыку Le Cinema De Serge Gainsbourg • Musiques De Films 1959–1990 бесплатно без регистрации torrent

Если у вас наблюдаются проблемы со скриншотами, переходом по ссылками, скачиванием торрентов - проблемы в блокировщике рекламы AdBlock. #хорошегоДня!


Статистика раздачи
Размер:  1.1 GB   |    Зарегистрирован:  6 лет 2 месяца   |    .torrent скачан:  59 раз   |   
Раздают:  1  
   
Загрузка...
 
Автор Сообщение

Galfimbul

avatar Galfimbul


Le Cinema De Serge Gainsbourg • Musiques De Films 1959–1990

Жанр: Score / Electronic, Jazz, Rock, Stage & Screen
Год выпуска диска: 2001
Производитель диска: La France

Аудио кодек: FLAC (*.flac)
Тип рипа: image+.cue
Битрейт аудио: lossless
Продолжительность: 3:19:14

Источник: avaxsearch
01. L'eau a la bouche • From L'eau a la bouche (Serge Gainsbourg) 2:34
02. Angoisse • From L'eau a la bouche 2:41
03. Black march • From L'eau a la bouche 1:40
04. Les loups dans la bergerie (final) • From Les loups dans la bergerie 3:26
05. Cha-cha du loup • From Les loups dans la bergerie 1:34
06. Strip-tease • From Strip-Tease (Juliette Greco) 2:14
07. Some small chance • From Strip-Tease 2:01
08. Rendez-vous a La Calavados • From Strip-Tease 3:00
09. Wake me at five • From Strip-Tease 2:49
10. Solitude • From Strip-Tease 2:10
11. Crazy-Horse swing • From Strip-Tease 2:44
12. Comment trouvez-vous ma soeur • From Comment trouvez-vous ma soeur (Serge Gainsbourg) 2:08
13. Erotico-tico • From Comment trouvez-vous ma soeur 1:28
14. No love for daddy • From Comment trouvez-vous ma soeur 1:40
15. Rocking horse • From Comment trouvez-vous ma soeur 2:13
16. Chanson du forcat • From Vidocq (Serge Gainsbourg) 2:45
17. Vidocq flash-back • From Vidocq 3:27
18. Scene de bal 1 • From Les coeurs verts 2:13
19. Scene de bal 2 • From Les coeurs verts 2:14
20. Valse du jardinier • From Le jardinier d'Argenteuil 3:04
21. Sous le soleil exactement • From Anna (Anna Karina) 3:33
22. Caressante • From Toutes folles de lui 2:21
23. Woom woom woom • From Toutes folles de lui 2:51
24. Breakdown suite • From Si j'etais un espion 8:02
 
Exact Audio Copy V0.99 prebeta 5 from 4. May 2009

EAC extraction logfile from 10. July 2010, 14:09

Various / Le cinйma de Serge Gainsbourg (Disc 1)

Used drive : HP DVD Writer 1040r Adapter: 1 ID: 0

Read mode : SecureUtilize accurate stream : YesDefeat audio cache : YesMake use of C2 pointers : No

Read offset correction : 6Overread into Lead-In and Lead-Out : NoFill up missing offset samples with silence : YesDelete leading and trailing silent blocks : NoNull samples used in CRC calculations : YesUsed interface : Native Win32 interface for Win NT & 2000

Used output format : User Defined EncoderSelected bitrate : 1024 kBit/sQuality : HighAdd ID3 tag : NoCommand line compressor : C:\Program Files\Exact Audio Copy\FLAC\FLAC.EXEAdditional command line options : -5 -V -T "ARTIST=%a" -T "TITLE=%t" -T "ALBUM=%g" -T "DATE=%y" -T "TRACKNUMBER=%n" -T "GENRE=%m" -T "COMMENT=EAC Flac 1.1.2 -5" %s

TOC of the extracted CD

Track | Start | Length | Start sector | End sector --------------------------------------------------------- 1 | 0:00.00 | 2:34.21 | 0 | 11570 2 | 2:34.21 | 2:40.41 | 11571 | 23611 3 | 5:14.62 | 1:40.33 | 23612 | 31144 4 | 6:55.20 | 3:25.68 | 31145 | 46587 5 | 10:21.13 | 1:34.05 | 46588 | 53642 6 | 11:55.18 | 2:13.50 | 53643 | 63667 7 | 14:08.68 | 2:00.47 | 63668 | 72714 8 | 16:09.40 | 3:00.24 | 72715 | 86238 9 | 19:09.64 | 2:48.59 | 86239 | 98897 10 | 21:58.48 | 2:09.38 | 98898 | 108610 11 | 24:08.11 | 2:44.20 | 108611 | 120930 12 | 26:52.31 | 2:08.12 | 120931 | 130542 13 | 29:00.43 | 1:27.45 | 130543 | 137112 14 | 30:28.13 | 1:39.68 | 137113 | 144605 15 | 32:08.06 | 2:13.18 | 144606 | 154598 16 | 34:21.24 | 2:44.60 | 154599 | 166958 17 | 37:06.09 | 3:26.38 | 166959 | 182446 18 | 40:32.47 | 2:12.71 | 182447 | 192417 19 | 42:45.43 | 2:13.41 | 192418 | 202433 20 | 44:59.09 | 3:04.06 | 202434 | 216239 21 | 48:03.15 | 3:32.39 | 216240 | 232178 22 | 51:35.54 | 2:20.73 | 232179 | 242751 23 | 53:56.52 | 2:50.48 | 242752 | 255549 24 | 56:47.25 | 8:02.14 | 255550 | 291713

Range status and errors

Selected range

Filename C:\Users\Mike3\Desktop\Le cinйma de Serge Gainsbourg\Various - Le cinйma de Serge Gainsbourg (Disc 1).wav

Peak level 96.8 % Range quality 100.0 % Copy CRC A39AB5CB Copy OK

No errors occurred

AccurateRip summary

Track 1 cannot be verified as accurate (confidence 1) [9175651D], AccurateRip returned [CEFFF131]Track 2 cannot be verified as accurate (confidence 1) [94E44F2D], AccurateRip returned [4A311EF6]Track 3 cannot be verified as accurate (confidence 1) [590BB281], AccurateRip returned [EB96FF0A]Track 4 cannot be verified as accurate (confidence 1) [274EAEF9], AccurateRip returned [76D68781]Track 5 cannot be verified as accurate (confidence 1) [3DD2010D], AccurateRip returned [62C2BD2F]Track 6 cannot be verified as accurate (confidence 1) [DAFAB606], AccurateRip returned [ABD041E0]Track 7 cannot be verified as accurate (confidence 1) [05C08BE0], AccurateRip returned [DC980DE5]Track 8 cannot be verified as accurate (confidence 1) [C1E301EB], AccurateRip returned [8224E738]Track 9 cannot be verified as accurate (confidence 1) [65650E7A], AccurateRip returned [91DC9CCB]Track 10 cannot be verified as accurate (confidence 1) [65F08C31], AccurateRip returned [15B2C363]Track 11 cannot be verified as accurate (confidence 1) [3E57205A], AccurateRip returned [398E753F]Track 12 cannot be verified as accurate (confidence 1) [51F36381], AccurateRip returned [A54D4D01]Track 13 cannot be verified as accurate (confidence 1) [F0FEEA13], AccurateRip returned [E8D18A9A]Track 14 cannot be verified as accurate (confidence 1) [4E5931B5], AccurateRip returned [B94578C9]Track 15 cannot be verified as accurate (confidence 1) [CF3ED7EF], AccurateRip returned [7A9E3AEF]Track 16 cannot be verified as accurate (confidence 1) [94E008E5], AccurateRip returned [CBE512BD]Track 17 cannot be verified as accurate (confidence 1) [4810A30C], AccurateRip returned [80107658]Track 18 cannot be verified as accurate (confidence 1) [02E09A56], AccurateRip returned [127E0286]Track 19 cannot be verified as accurate (confidence 1) [588BA3E7], AccurateRip returned [35C240A2]Track 20 cannot be verified as accurate (confidence 1) [2DA4AEC4], AccurateRip returned [6A906B30]Track 21 cannot be verified as accurate (confidence 1) [DAE0571A], AccurateRip returned [79E17C45]Track 22 cannot be verified as accurate (confidence 1) [82DBA018], AccurateRip returned [5AFADC2A]Track 23 cannot be verified as accurate (confidence 1) [C07D2ED9], AccurateRip returned [9B0EEBF4]Track 24 cannot be verified as accurate (confidence 1) [C2A6D3D1], AccurateRip returned [A778204F]

No tracks could be verified as accurateYou may have a different pressing from the one(s) in the database

End of status report
01. L'horizon • Elisa 2:30
02. L'horizon • L'horizon 2:13
03. L'horizon • Elisa (instrumental) 1:40
04. Manon 70 • Manon 2:43
05. Manon 70 • New delire 3:05
06. Ce sacre grand-pere • L'herbe tendre (Serge Gainsbourg & Michel Simon) 2:24
07. Ce sacre grand-pere • Ce sacre grand-pere (generique) 2:38
08. Ce sacre grand-pere • Champetre et pop 2:15
09. Ce sacre grand-pere • L'herbe tendre 2:18
10. Le pacha • Requiem pour un con 2:52
11. Le pacha • Psychastenie 4:21
12. Le pacha • Cadavres en serie 1:32
13. Mister Freedom • Oh beautiful America / Mister Freedom march 2:46
14. Mister Freedom • No no, yes yes 2:46
15. Mister Freedom • Freedom rock / Mister Freedom 2:58
16. Slogan • La chanson de Slogan (Serge Gainsbourg & Jane Birkin) 2:53
17. Slogan • Evelyne 2:13
18. La horse • La Horse 3:38
19. La horse • L'alouette 2:30
20. Cannabis • Cannabis 2:30
21. Cannabis • Avant de mourir 5:24
22. Cannabis • Cannabis (instrumental) 2:28
23. Cannabis • Derniere blessure 1:24
24. Un petit garcon nomme Charlie Brown • Un petit garcon nomme Charlie Brown 2:42
 
Exact Audio Copy V0.99 prebeta 5 from 4. May 2009

EAC extraction logfile from 10. July 2010, 14:31

Serge Gainsbourg / Le cinйma de Serge Gainsbourg (Disc 2)

Used drive : HP DVD Writer 1040r Adapter: 1 ID: 0

Read mode : SecureUtilize accurate stream : YesDefeat audio cache : YesMake use of C2 pointers : No

Read offset correction : 6Overread into Lead-In and Lead-Out : NoFill up missing offset samples with silence : YesDelete leading and trailing silent blocks : NoNull samples used in CRC calculations : YesUsed interface : Native Win32 interface for Win NT & 2000

Used output format : User Defined EncoderSelected bitrate : 1024 kBit/sQuality : HighAdd ID3 tag : NoCommand line compressor : C:\Program Files\Exact Audio Copy\FLAC\FLAC.EXEAdditional command line options : -5 -V -T "ARTIST=%a" -T "TITLE=%t" -T "ALBUM=%g" -T "DATE=%y" -T "TRACKNUMBER=%n" -T "GENRE=%m" -T "COMMENT=EAC Flac 1.1.2 -5" %s

TOC of the extracted CD

Track | Start | Length | Start sector | End sector --------------------------------------------------------- 1 | 0:00.00 | 2:30.15 | 0 | 11264 2 | 2:30.15 | 2:13.09 | 11265 | 21248 3 | 4:43.24 | 1:39.63 | 21249 | 28736 4 | 6:23.12 | 2:43.31 | 28737 | 40992 5 | 9:06.43 | 3:05.31 | 40993 | 54898 6 | 12:11.74 | 2:24.05 | 54899 | 65703 7 | 14:36.04 | 2:38.08 | 65704 | 77561 8 | 17:14.12 | 2:14.67 | 77562 | 87678 9 | 19:29.04 | 2:18.36 | 87679 | 98064 10 | 21:47.40 | 2:51.68 | 98065 | 110957 11 | 24:39.33 | 4:21.02 | 110958 | 130534 12 | 29:00.35 | 1:31.60 | 130535 | 137419 13 | 30:32.20 | 2:46.21 | 137420 | 149890 14 | 33:18.41 | 2:45.55 | 149891 | 162320 15 | 36:04.21 | 2:58.18 | 162321 | 175688 16 | 39:02.39 | 2:52.58 | 175689 | 188646 17 | 41:55.22 | 2:12.59 | 188647 | 198605 18 | 44:08.06 | 3:37.63 | 198606 | 214943 19 | 47:45.69 | 2:29.48 | 214944 | 226166 20 | 50:15.42 | 2:29.59 | 226167 | 237400 21 | 52:45.26 | 5:23.68 | 237401 | 261693 22 | 58:09.19 | 2:27.56 | 261694 | 272774 23 | 60:37.00 | 1:24.30 | 272775 | 279104 24 | 62:01.30 | 2:42.20 | 279105 | 291274

Range status and errors

Selected range

Filename C:\Users\Mike3\Desktop\Le cinйma de Serge Gainsbourg\Disc 2\Serge Gainsbourg - Le cinйma de Serge Gainsbourg (Disc 2).wav

Peak level 94.8 % Range quality 100.0 % Copy CRC 4873AC8E Copy OK

No errors occurred

AccurateRip summary

Track 1 cannot be verified as accurate (confidence 1) [A23D11F3], AccurateRip returned [3EB7C544]Track 2 cannot be verified as accurate (confidence 1) [5361EC21], AccurateRip returned [7245782B]Track 3 cannot be verified as accurate (confidence 1) [BA5CFBA8], AccurateRip returned [C127D3A4]Track 4 cannot be verified as accurate (confidence 1) [A2EE7740], AccurateRip returned [13317571]Track 5 cannot be verified as accurate (confidence 1) [7DB875A0], AccurateRip returned [C1E98A0F]Track 6 cannot be verified as accurate (confidence 1) [2A5C4F94], AccurateRip returned [4250DDF6]Track 7 cannot be verified as accurate (confidence 1) [FC5E6268], AccurateRip returned [7FC7464C]Track 8 cannot be verified as accurate (confidence 1) [171A8852], AccurateRip returned [26C5AD7C]Track 9 cannot be verified as accurate (confidence 1) [E3C246DE], AccurateRip returned [0123A6EC]Track 10 cannot be verified as accurate (confidence 1) [03424ABC], AccurateRip returned [AFF7D4D5]Track 11 cannot be verified as accurate (confidence 1) [AE0ADB8F], AccurateRip returned [13358980]Track 12 cannot be verified as accurate (confidence 1) [AD0FA83B], AccurateRip returned [56A60F40]Track 13 cannot be verified as accurate (confidence 1) [C7AB7844], AccurateRip returned [50B541C1]Track 14 cannot be verified as accurate (confidence 1) [A2A250E2], AccurateRip returned [368AB3D5]Track 15 cannot be verified as accurate (confidence 1) [7A8E660C], AccurateRip returned [AA8D64EA]Track 16 cannot be verified as accurate (confidence 1) [9255B761], AccurateRip returned [24465375]Track 17 cannot be verified as accurate (confidence 1) [7A1FD54F], AccurateRip returned [13F97FB6]Track 18 cannot be verified as accurate (confidence 1) [AB1940CC], AccurateRip returned [51623E91]Track 19 cannot be verified as accurate (confidence 1) [F07FA5F1], AccurateRip returned [BD189519]Track 20 cannot be verified as accurate (confidence 1) [EF485899], AccurateRip returned [CD493199]Track 21 cannot be verified as accurate (confidence 1) [3F3F1DEC], AccurateRip returned [7426CBD2]Track 22 cannot be verified as accurate (confidence 1) [015C9D9F], AccurateRip returned [F8AB7037]Track 23 cannot be verified as accurate (confidence 1) [7ADF9185], AccurateRip returned [870E2B2D]Track 24 cannot be verified as accurate (confidence 1) [08AD30F3], AccurateRip returned [20723E61]

No tracks could be verified as accurateYou may have a different pressing from the one(s) in the database

End of status report
01. Sex-shop (From Sex-shop) [Serge Gainsbourg] 2:59
02. Generique (From Sex-shop) 1:58
03. Sex-radio-suite (From Sex-shop) 4:41
04. Moogy-woogy/Close combat (From Trop jolies pour кtre honnetes) 3:14
05. L'amour en prive (From Projection privee)[Franзoise Hardy] 2:30
06. Ballade de Johnny-Jane (From Je t'aime moi non plus) 3:10
07. Zanzibar (From Aurais du faire gaffe, le choc est terrible)[Serge Gainsbourg] 2:35
08. Yesterday yes a day (From Madame Claude) [Jane Birkin] 3:00
09. First class ticket/Yesterday on Fender (From Madame Claude) 2:50
10. Chanson du Chevalier Blanc (From Vous n'aurez pas l'Alsace et la Lorraine) [G... 1:48
11. Goodbye Emmanuelle (From Goodbye Emmanuelle)[Serge Gainsbourg] 3:24
12. Sea, sex and sun (From Les bronzes)[Serge Gainsbourg] 3:26
13. Melancoly suite (From Melancoly baby) 3:12
14. Tapage nocturne (From Tapage nocturne)[Bijou] 2:47
15. Dieu fumeur de havanes (From Je vous aime) [Serge Gainsbourg & Catherine Dene... 3:54
16. Le physique et le figure (From Le physique et le figure) 2:30
17. Travelling (From Tenue de soiree) 4:15
18. Entrave (From Tenue de soiree) 1:34
19. Stan/Elodie (From Stan the flasher) 2:52
20. Valse de l'au-revoir (From Week-end en mer)[Juliette Greco] 1:37
21. Strip-tease (From Strip-tease) [Nico] 2:16
22. La noyee (From Vivre ensemble)[Anna Karina] 3:02
23. Hier ou demain (From Vivre ensemble)[Anna Karina] 2:42
24. Goodbye Emmanuelle (From Goodbye Emmanuelle )[Serge Gainsbourg][version inedite] 3:20
 
Exact Audio Copy V0.99 prebeta 5 from 4. May 2009

EAC extraction logfile from 10. July 2010, 14:54

Serge Gainsbourg / Le cinйma de Serge Gainsbourg (Disc 3)

Used drive : HP DVD Writer 1040r Adapter: 1 ID: 0

Read mode : SecureUtilize accurate stream : YesDefeat audio cache : YesMake use of C2 pointers : No

Read offset correction : 6Overread into Lead-In and Lead-Out : NoFill up missing offset samples with silence : YesDelete leading and trailing silent blocks : NoNull samples used in CRC calculations : YesUsed interface : Native Win32 interface for Win NT & 2000

Used output format : User Defined EncoderSelected bitrate : 1024 kBit/sQuality : HighAdd ID3 tag : NoCommand line compressor : C:\Program Files\Exact Audio Copy\FLAC\FLAC.EXEAdditional command line options : -5 -V -T "ARTIST=%a" -T "TITLE=%t" -T "ALBUM=%g" -T "DATE=%y" -T "TRACKNUMBER=%n" -T "GENRE=%m" -T "COMMENT=EAC Flac 1.1.2 -5" %s

TOC of the extracted CD

Track | Start | Length | Start sector | End sector --------------------------------------------------------- 1 | 0:00.00 | 2:59.27 | 0 | 13451 2 | 2:59.27 | 1:57.52 | 13452 | 22278 3 | 4:57.04 | 4:41.23 | 22279 | 43376 4 | 9:38.27 | 3:14.35 | 43377 | 57961 5 | 12:52.62 | 2:30.33 | 57962 | 69244 6 | 15:23.20 | 3:10.23 | 69245 | 83517 7 | 18:33.43 | 2:35.24 | 83518 | 95166 8 | 21:08.67 | 2:59.72 | 95167 | 108663 9 | 24:08.64 | 2:50.31 | 108664 | 121444 10 | 26:59.20 | 1:48.33 | 121445 | 129577 11 | 28:47.53 | 3:24.12 | 129578 | 144889 12 | 32:11.65 | 3:25.67 | 144890 | 160331 13 | 35:37.57 | 3:12.13 | 160332 | 174744 14 | 38:49.70 | 2:47.37 | 174745 | 187306 15 | 41:37.32 | 3:54.35 | 187307 | 204891 16 | 45:31.67 | 2:30.34 | 204892 | 216175 17 | 48:02.26 | 4:14.50 | 216176 | 235275 18 | 52:17.01 | 1:33.58 | 235276 | 242308 19 | 53:50.59 | 2:52.26 | 242309 | 255234 20 | 56:43.10 | 1:37.35 | 255235 | 262544 21 | 58:20.45 | 2:16.34 | 262545 | 272778 22 | 60:37.04 | 3:02.03 | 272779 | 286431 23 | 63:39.07 | 2:42.28 | 286432 | 298609 24 | 66:21.35 | 3:19.59 | 298610 | 313593

Range status and errors

Selected range

Filename C:\Users\Mike3\Desktop\Le cinйma de Serge Gainsbourg\Disc 3\Serge Gainsbourg - Le cinйma de Serge Gainsbourg (Disc 3).wav

Peak level 89.5 % Range quality 100.0 % Copy CRC 32DF1AA6 Copy OK

No errors occurred

AccurateRip summary

Track 1 cannot be verified as accurate (confidence 1) [5D5DAD6E], AccurateRip returned [C51CFEF3]Track 2 cannot be verified as accurate (confidence 1) [D6F9CA3A], AccurateRip returned [BA6E0B30]Track 3 cannot be verified as accurate (confidence 1) [6BA91AED], AccurateRip returned [0099EA5C]Track 4 cannot be verified as accurate (confidence 1) [528B5A3E], AccurateRip returned [AA735AEF]Track 5 cannot be verified as accurate (confidence 1) [BA602BF9], AccurateRip returned [DC2B426C]Track 6 cannot be verified as accurate (confidence 1) [9563A936], AccurateRip returned [81153E3B]Track 7 cannot be verified as accurate (confidence 1) [75060A62], AccurateRip returned [17CE8B66]Track 8 cannot be verified as accurate (confidence 1) [BB10719F], AccurateRip returned [C0FA934D]Track 9 cannot be verified as accurate (confidence 1) [EF8AC020], AccurateRip returned [F26CDABC]Track 10 cannot be verified as accurate (confidence 1) [D79AC93D], AccurateRip returned [89EAB339]Track 11 cannot be verified as accurate (confidence 1) [FF24D7DD], AccurateRip returned [829D1B06]Track 12 cannot be verified as accurate (confidence 1) [3B699668], AccurateRip returned [12A1D8AF]Track 13 cannot be verified as accurate (confidence 1) [66CB1B33], AccurateRip returned [EF94B5D3]Track 14 cannot be verified as accurate (confidence 1) [A1093EB0], AccurateRip returned [8C711A88]Track 15 cannot be verified as accurate (confidence 1) [FF277003], AccurateRip returned [369D06FD]Track 16 cannot be verified as accurate (confidence 1) [E1771F60], AccurateRip returned [601FBF80]Track 17 cannot be verified as accurate (confidence 1) [D5484D6F], AccurateRip returned [1439315E]Track 18 cannot be verified as accurate (confidence 1) [FC827832], AccurateRip returned [C9B6404D]Track 19 cannot be verified as accurate (confidence 1) [F5F60EAB], AccurateRip returned [5FDCEF09]Track 20 cannot be verified as accurate (confidence 1) [AB2FF7A4], AccurateRip returned [7A3BD746]Track 21 cannot be verified as accurate (confidence 1) [0A0EBD43], AccurateRip returned [F89A5BD6]Track 22 cannot be verified as accurate (confidence 1) [0EB17728], AccurateRip returned [77F9CCFD]Track 23 cannot be verified as accurate (confidence 1) [45B144CA], AccurateRip returned [B2293981]Track 24 cannot be verified as accurate (confidence 1) [C42D7A23], AccurateRip returned [2BA6C5E9]

No tracks could be verified as accurateYou may have a different pressing from the one(s) in the database

End of status report


Трекер:  [ 08-Июл-2011 13:30 ]

  

Скачать .torrent

Размер .torrent файла 12 KB


Размер: 1.1 GB
Хэш (hash) релиза: 46b4b856af7a20680d9840508c7bafe4fa07c146

Еще никто не оставлял запись к записи скачать торрент Le Cinema De Serge Gainsbourg • Musiques De Films 1959–1990 . Будь первым!

!Обратная связь