Скачать через торрент музыку Elton John - The Road To El Dorado - бесплатно без регистрации torrent

Если у вас наблюдаются проблемы со скриншотами, переходом по ссылками, скачиванием торрентов - проблемы в блокировщике рекламы AdBlock. #хорошегоДня!


Статистика раздачи
Размер:  411 MB   |    Зарегистрирован:  6 лет 2 месяца   |    .torrent скачан:  63 раза   |   
Раздают:  1  
   
Загрузка...
 
Автор Сообщение

Galfimbul

avatar Galfimbul


Elton John - The Road To El Dorado - (2000)[FLAC-EAC-CUE]

Страна: USA
Жанр: Soundtracks
Год выпуска: 2000
Формат: FLAC (tracks)
Битрейт аудио: lossless
01.El Dorado (04:22)
02.Someday Out Of The Blue (Theme From El Dorado) (04:47)
03.Without Question (04:47)
04.Friends Never Say Goodbye (04:20)
05.The Trail We Blaze (03:53)
06.16th Century Man (03:39)
07.The Panic In Me (05:40)
08.It's Tough To Be A God (Duet with Randy Newman) (03:49)
09.Trust Me (04:45)
10.My Heart Dances (04:51)
11.Queen Of Cities (03:56)
12.Cheldorado (04:26)
13.The Brig (02:58)
14.Wonders Of The New World (05:55)
EAC extraction logfile from 16. April 2008, 5:21 for CD
Elton John / The Road To El Dorado

Used drive : _NEC DVD_RW ND-2510A Adapter: 1 ID: 0
Read mode : Secure with NO C2, accurate stream, disable cache
Read offset correction : 48
Overread into Lead-In and Lead-Out : No

Used output format : C:\Program Files\FLAC\flac.exe (User Defined Encoder)
192 kBit/s
Additional command line options : -8 -A tukey(0.25) -A gauss(0.1875) -b 4096 -V -T "artist=%a" -T "title=%t" -T "album=%g" -T "date=%y" -T "tracknumber=%n" -T "genre=%m" %s --sector-align

Other options :
Fill up missing offset samples with silence : Yes
Delete leading and trailing silent blocks : No
Installed external ASPI interface

Track 1
Filename C:\wip\New Folder\01 - Elton John - El Dorado .wav

Pre-gap length 0:00:02.00

Peak level 98.8 %
Track quality 100.0 %
Test CRC EFA6DC95
Copy CRC EFA6DC95
Copy OK

Track 2
Filename C:\wip\New Folder\02 - Elton John - Someday Out Of The Blue (Theme From El Dorado) .wav

Peak level 98.8 %
Track quality 100.0 %
Test CRC 62C0990D
Copy CRC 62C0990D
Copy OK

Track 3
Filename C:\wip\New Folder\03 - Elton John - Without Question .wav

Pre-gap length 0:00:00.01

Peak level 98.8 %
Track quality 100.0 %
Test CRC 1DD2F47A
Copy CRC 1DD2F47A
Copy OK

Track 4
Filename C:\wip\New Folder\04 - Elton John - Friends Never Say Goodbye .wav

Pre-gap length 0:00:00.01

Peak level 98.8 %
Track quality 100.0 %
Test CRC 2E68B6AA
Copy CRC 2E68B6AA
Copy OK

Track 5
Filename C:\wip\New Folder\05 - Elton John - The Trail We Blaze .wav

Pre-gap length 0:00:00.01

Peak level 98.8 %
Track quality 99.1 %
Test CRC 33F79A52
Copy CRC 33F79A52
Copy OK

Track 6
Filename C:\wip\New Folder\06 - Elton John - 16th Century Man .wav

Pre-gap length 0:00:00.01

Peak level 98.8 %
Track quality 100.0 %
Test CRC 74C12857
Copy CRC 74C12857
Copy OK

Track 7
Filename C:\wip\New Folder\07 - Elton John - The Panic In Me .wav

Pre-gap length 0:00:00.01

Peak level 98.8 %
Track quality 99.9 %
Test CRC 63EB95CB
Copy CRC 63EB95CB
Copy OK

Track 8
Filename C:\wip\New Folder\08 - Elton John - It's Tough To Be A God (Duet with Randy Newman) .wav

Pre-gap length 0:00:00.01

Peak level 98.8 %
Track quality 100.0 %
Test CRC 1EA2F4F2
Copy CRC 1EA2F4F2
Copy OK

Track 9
Filename C:\wip\New Folder\09 - Elton John - Trust Me .wav

Pre-gap length 0:00:00.01

Peak level 98.8 %
Track quality 100.0 %
Test CRC 37FA2175
Copy CRC 37FA2175
Copy OK

Track 10
Filename C:\wip\New Folder\10 - Elton John - My Heart Dances .wav

Peak level 98.8 %
Track quality 100.0 %
Test CRC AAD74B60
Copy CRC AAD74B60
Copy OK

Track 11
Filename C:\wip\New Folder\11 - Elton John - Queen Of Cities .wav

Peak level 98.8 %
Track quality 100.0 %
Test CRC 2BFAD987
Copy CRC 2BFAD987
Copy OK

Track 12
Filename C:\wip\New Folder\12 - Elton John - Cheldorado .wav

Pre-gap length 0:00:01.57

Peak level 99.6 %
Track quality 100.0 %
Test CRC 5D7775BB
Copy CRC 5D7775BB
Copy OK

Track 13
Filename C:\wip\New Folder\13 - Elton John - The Brig .wav

Pre-gap length 0:00:00.01

Peak level 98.8 %
Track quality 99.9 %
Test CRC AC32BD0B
Copy CRC AC32BD0B
Copy OK

Track 14
Filename C:\wip\New Folder\14 - Elton John - Wonders Of The New World .wav

Pre-gap length 0:00:00.01

Peak level 100.0 %
Track quality 100.0 %
Test CRC CB6969A8
Copy CRC CB6969A8
Copy OK

No errors occured

End of status report


Трекер:  [ 08-Июл-2011 13:31 ]

  

Скачать .torrent

Размер .torrent файла 18 KB


Размер: 411 MB
Хэш (hash) релиза: c6ffd7539c21705b03ad5bcf1ce9d0584814caf8

Торренты, похожие на Elton John - The Road To El Dorado - скачать торрент

Форум Название Автор Размер S L Добавлен
Саундтреки к фильмам и мультфильмам (mp3) ·· (Soundtrack) Elton John - The Road To El Dorado / Дорога на Эльдорадо - 2000, MP3 (tracks), 320 kbps Galfimbul 149427705143 MB 0 0 1292265806

21:43

13-Дек-10

Саундтреки к фильмам и мультфильмам (lossless) ·· (Soundtrack) The Road To El Dorado (Elton John's The Road To El Dorado) (Elton John) - 2000, APE (tracks+.cue), lossless Galfimbul 485069624463 MB 0 0 1365952288

18:11

14-Апр-13

Еще никто не оставлял запись к записи скачать торрент Elton John - The Road To El Dorado - . Будь первым!

!Обратная связь