Скачать через торрент музыку 127 часов 127 Hours бесплатно без регистрации torrent

Если у вас наблюдаются проблемы со скриншотами, переходом по ссылками, скачиванием торрентов - проблемы в блокировщике рекламы AdBlock. #хорошегоДня!


Статистика раздачи
Размер:  311 MB   |    Зарегистрирован:  6 лет 5 месяцев   |    .torrent скачан:  34 раза   |   
Раздают:  1  
   
Загрузка...
 
Автор Сообщение

Galfimbul

avatar Galfimbul


127 часов / 127 Hours

Жанр: Score / Soundtrack
Композитор: A.R. Rahman
Год выпуска диска: 2010
Производитель диска: USA
Аудио кодек: FLAC
Тип рипа: tracks+.cue
Битрейт аудио: lossless
Продолжительность: 01:01:25

01 - Free Blood - Never Hear Surf Music Again (05:52)
02 - A.R. Rahman - The Canyon (03:02)
03 - A.R. Rahman - Liberation Begins (02:15)
04 - A.R. Rahman - Touch of the Sun (04:39)
05 - Bill Withers - Lovely Day (04:17)
06 - Vladimir Ashkenazy - Chopin: Nocturne No. 2 in E Flat, Op. 9 No. 2 (04:01)
07 - Plastic Bertrand - Ça Plane Pour Moi (03:00)
08 - A.R. Rahman - Liberation in a Dream (04:06)
09 - Esther Phillips - If You Love Me (Really Love Me) (03:27)
10 - A.R. Rahman - Acid Darbari (04:21)
11 - A.R. Rahman - R.I.P. (05:11)
12 - A.R. Rahman - Liberation (03:12)
13 - Sigur Rós - Festival (09:26)
14 - Dido / A.R. Rahman - If I Rise (04:38)

Источник: what.cd
 
Exact Audio Copy V0.99 prebeta 5 from 4. May 2009

EAC extraction logfile from 12. November 2010, 17:25

Various / 127 Hours: Music From the Motion Picture

Used drive : PHILIPS DVD-ROM DROM6316 Adapter: 1 ID: 0

Read mode : SecureUtilize accurate stream : YesDefeat audio cache : YesMake use of C2 pointers : No

Read offset correction : 6Overread into Lead-In and Lead-Out : NoFill up missing offset samples with silence : YesDelete leading and trailing silent blocks : NoNull samples used in CRC calculations : YesUsed interface : Native Win32 interface for Win NT & 2000Gap handling : Appended to previous track

Used output format : User Defined EncoderSelected bitrate : 768 kBit/sQuality : HighAdd ID3 tag : NoCommand line compressor : C:\Program Files\Exact Audio Copy\FLAC\FLAC.EXEAdditional command line options : -V -8 -T "artist=%a" -T "title=%t" -T "album=%g" -T "date=%y" -T "tracknumber=%n" -T "genre=%m" %s

TOC of the extracted CD

Track | Start | Length | Start sector | End sector --------------------------------------------------------- 1 | 0:00.00 | 5:51.48 | 0 | 26372 2 | 5:51.48 | 3:01.49 | 26373 | 39996 3 | 8:53.22 | 2:14.42 | 39997 | 50088 4 | 11:07.64 | 4:39.08 | 50089 | 71021 5 | 15:46.72 | 4:16.44 | 71022 | 90265 6 | 20:03.41 | 4:01.12 | 90266 | 108352 7 | 24:04.53 | 2:59.62 | 108353 | 121839 8 | 27:04.40 | 4:05.74 | 121840 | 140288 9 | 31:10.39 | 3:27.05 | 140289 | 155818 10 | 34:37.44 | 4:21.03 | 155819 | 175396 11 | 38:58.47 | 5:10.72 | 175397 | 198718 12 | 44:09.44 | 3:11.38 | 198719 | 213081 13 | 47:21.07 | 9:25.56 | 213082 | 255512 14 | 56:46.63 | 4:38.32 | 255513 | 276394

Track 1

Filename E:\JonBStudiosessions\Various Artists\127 Hours [FLAC]\01. Free Blood - Never Hear Surf Music Again.wav

Pre-gap length 0:00:02.00

Peak level 97.7 % Track quality 99.9 % Test CRC 04D649CC Copy CRC 04D649CC Track not present in AccurateRip database Copy OK

Track 2

Filename E:\JonBStudiosessions\Various Artists\127 Hours [FLAC]\02. A.R. Rahman - The Canyon.wav

Peak level 73.2 % Track quality 99.9 % Test CRC 9CC689D0 Copy CRC 9CC689D0 Track not present in AccurateRip database Copy OK

Track 3

Filename E:\JonBStudiosessions\Various Artists\127 Hours [FLAC]\03. A.R. Rahman - Liberation Begins.wav

Peak level 97.6 % Track quality 100.0 % Test CRC CDF5B1F6 Copy CRC CDF5B1F6 Track not present in AccurateRip database Copy OK

Track 4

Filename E:\JonBStudiosessions\Various Artists\127 Hours [FLAC]\04. A.R. Rahman - Touch of the Sun.wav

Peak level 97.7 % Track quality 100.0 % Test CRC 5A83146A Copy CRC 5A83146A Track not present in AccurateRip database Copy OK

Track 5

Filename E:\JonBStudiosessions\Various Artists\127 Hours [FLAC]\05. Bill Withers - Lovely Day.wav

Peak level 97.7 % Track quality 100.0 % Test CRC 3F0646AC Copy CRC 3F0646AC Track not present in AccurateRip database Copy OK

Track 6

Filename E:\JonBStudiosessions\Various Artists\127 Hours [FLAC]\06. Vladimir Ashkenazy - Chopin- Nocturne No. 2 in E Flat, Op. 9 No. 2.wav

Peak level 96.5 % Track quality 100.0 % Test CRC DCB55F37 Copy CRC DCB55F37 Track not present in AccurateRip database Copy OK

Track 7

Filename E:\JonBStudiosessions\Various Artists\127 Hours [FLAC]\07. Plastic Bertrand - Зa Plane Pour Moi.wav

Peak level 97.7 % Track quality 100.0 % Test CRC 1F65F2E8 Copy CRC 1F65F2E8 Track not present in AccurateRip database Copy OK

Track 8

Filename E:\JonBStudiosessions\Various Artists\127 Hours [FLAC]\08. A.R. Rahman - Liberation in a Dream.wav

Peak level 97.7 % Track quality 100.0 % Test CRC F0663473 Copy CRC F0663473 Track not present in AccurateRip database Copy OK

Track 9

Filename E:\JonBStudiosessions\Various Artists\127 Hours [FLAC]\09. Esther Phillips - If You Love Me (Really Love Me).wav

Peak level 97.7 % Track quality 100.0 % Test CRC F291CCFD Copy CRC F291CCFD Track not present in AccurateRip database Copy OK

Track 10

Filename E:\JonBStudiosessions\Various Artists\127 Hours [FLAC]\10. A.R. Rahman - Acid Darbari.wav

Peak level 96.6 % Track quality 100.0 % Test CRC A5FE7D31 Copy CRC A5FE7D31 Track not present in AccurateRip database Copy OK

Track 11

Filename E:\JonBStudiosessions\Various Artists\127 Hours [FLAC]\11. A.R. Rahman - R.I.P..wav

Peak level 97.7 % Track quality 100.0 % Test CRC 55AF00B4 Copy CRC 55AF00B4 Track not present in AccurateRip database Copy OK

Track 12

Filename E:\JonBStudiosessions\Various Artists\127 Hours [FLAC]\12. A.R. Rahman - Liberation.wav

Peak level 97.7 % Track quality 100.0 % Test CRC 2325E930 Copy CRC 2325E930 Track not present in AccurateRip database Copy OK

Track 13

Filename E:\JonBStudiosessions\Various Artists\127 Hours [FLAC]\13. Sigur Rуs - Festival.wav

Peak level 97.7 % Track quality 100.0 % Test CRC ED0FE6C8 Copy CRC ED0FE6C8 Track not present in AccurateRip database Copy OK

Track 14

Filename E:\JonBStudiosessions\Various Artists\127 Hours [FLAC]\14. A.R. Rahman - If I Rise.wav

Peak level 97.7 % Track quality 100.0 % Test CRC F8869F87 Copy CRC F8869F87 Track not present in AccurateRip database Copy OK

None of the tracks are present in the AccurateRip database

No errors occurred

End of status report
 
REM GENRE SoundtrackREM DATE 2010REM DISCID C50E650EREM COMMENT "ExactAudioCopy v0.99pb5"FILE "01. Free Blood - Never Hear Surf Music Again.wav" WAVE TRACK 01 AUDIO INDEX 01 00:00:00FILE "02. A.R. Rahman - The Canyon.wav" WAVE TRACK 02 AUDIO INDEX 01 00:00:00FILE "03. A.R. Rahman - Liberation Begins.wav" WAVE TRACK 03 AUDIO INDEX 01 00:00:00FILE "04. A.R. Rahman - Touch of the Sun.wav" WAVE TRACK 04 AUDIO INDEX 01 00:00:00FILE "05. Bill Withers - Lovely Day.wav" WAVE TRACK 05 AUDIO INDEX 01 00:00:00FILE "06. Vladimir Ashkenazy - Chopin- Nocturne No. 2 in E Flat, Op. 9 No. 2.wav" WAVE TRACK 06 AUDIO INDEX 01 00:00:00FILE "07. Plastic Bertrand - Зa Plane Pour Moi.wav" WAVE TRACK 07 AUDIO INDEX 01 00:00:00FILE "08. A.R. Rahman - Liberation in a Dream.wav" WAVE TRACK 08 AUDIO INDEX 01 00:00:00FILE "09. Esther Phillips - If You Love Me (Really Love Me).wav" WAVE TRACK 09 AUDIO INDEX 01 00:00:00FILE "10. A.R. Rahman - Acid Darbari.wav" WAVE TRACK 10 AUDIO INDEX 01 00:00:00FILE "11. A.R. Rahman - R.I.P..wav" WAVE TRACK 11 AUDIO INDEX 01 00:00:00FILE "12. A.R. Rahman - Liberation.wav" WAVE TRACK 12 AUDIO INDEX 01 00:00:00FILE "13. Sigur Rуs - Festival.wav" WAVE TRACK 13 AUDIO INDEX 01 00:00:00FILE "14. A.R. Rahman - If I Rise.wav" WAVE TRACK 14 AUDIO INDEX 01 00:00:00



Трекер:  [ 08-Июл-2011 13:32 ]

  

Скачать .torrent

Размер .torrent файла 13 KB


Размер: 311 MB
Хэш (hash) релиза: b9a49ed0c77ac978390ac677bf8d5b54b0fd4870

Торренты, похожие на 127 часов 127 Hours скачать торрент

Форум Название Автор Размер S L Добавлен
Саундтреки к фильмам и мультфильмам (mp3) ·· (Score / Soundtrack) 127 часов / 127 Hours (by A.R. Rahman) - 2010, MP3 (tracks), 320 kbps Galfimbul 147449482141 MB 0 0 1292265693

21:41

13-Дек-10

Еще никто не оставлял запись к записи скачать торрент 127 часов 127 Hours . Будь первым!

!Обратная связь