Скачать через торрент музыку Кошмар на улице Вязов A Nightmare On Elm Street бесплатно без регистрации torrent

Если у вас наблюдаются проблемы со скриншотами, переходом по ссылками, скачиванием торрентов - проблемы в блокировщике рекламы AdBlock. #хорошегоДня!


Статистика раздачи
Размер:  230 MB   |    Зарегистрирован:  6 лет 8 месяцев   |    .torrent скачан:  51 раз   |   
Раздают:  1  
   
Загрузка...
 
Автор Сообщение

FRANKS

avatar FRANKS


A Nightmare On Elm Street / Кошмар на улице Вязов
(by Steve Jablonsky)
Жанр: Score
Год выпуска диска: 2010
Производитель диска: WaterTower music / WTM39194
Аудио кодек: FLAC
Тип рипа: tracks+.cue
Битрейт аудио: lossless
Продолжительность: 00:50:05
01. Freddy's Coming for You (4:29)
02. Main Title (2:36)
03. Missing Pictures (2:23)
04. Rufus (1:34)
05. Quiet Drive (1:49)
06. Jesse and Kris (1:08)
07. Jesse and the Police (2:51)
08. You Smell Different (2:14)
09. A Man Named Fred Krueger (5:04)
10. Research (2:22)
11. It's Hot In Here (3:13)
12. The School (0:53)
13. Where the Monster Lives (4:52)
14. Wake Me Up (4:56)
15. Boo (1:06)
16. Like It Used to Be (5:33)
17. One More Nap (2:44)
18. Jump Rope (0:21)
 
Exact Audio Copy V0.99 prebeta 5 from 4. May 2009

EAC extraction logfile from 5. May 2010, 17:55

Steve Jablonsky / A Nightmare On Elm Street

Used drive : Optiarc DVD RW AD-7241S Adapter: 1 ID: 1

Read mode : SecureUtilize accurate stream : YesDefeat audio cache : YesMake use of C2 pointers : No

Read offset correction : 48Overread into Lead-In and Lead-Out : NoFill up missing offset samples with silence : YesDelete leading and trailing silent blocks : NoNull samples used in CRC calculations : YesUsed interface : Native Win32 interface for Win NT & 2000Gap handling : Appended to previous track

Used output format : User Defined EncoderSelected bitrate : 128 kBit/sQuality : HighAdd ID3 tag : NoCommand line compressor : C:\Program Files (x86)\Exact Audio Copy\Flac\flac.exeAdditional command line options : -8 -V -T "artist=%a" -T "title=%t" -T "album=%g" -T "date=%y" -T "tracknumber=%n" -T "genre=%m" %s

TOC of the extracted CD

Track | Start | Length | Start sector | End sector --------------------------------------------------------- 1 | 0:00.00 | 4:28.62 | 0 | 20161 2 | 4:28.62 | 2:35.57 | 20162 | 31843 3 | 7:04.44 | 2:22.61 | 31844 | 42554 4 | 9:27.30 | 1:34.07 | 42555 | 49611 5 | 11:01.37 | 1:48.41 | 49612 | 57752 6 | 12:50.03 | 1:08.02 | 57753 | 62854 7 | 13:58.05 | 2:50.40 | 62855 | 75644 8 | 16:48.45 | 2:14.01 | 75645 | 85695 9 | 19:02.46 | 5:03.47 | 85696 | 108467 10 | 24:06.18 | 2:22.17 | 108468 | 119134 11 | 26:28.35 | 3:12.52 | 119135 | 133586 12 | 29:41.12 | 0:52.40 | 133587 | 137526 13 | 30:33.52 | 4:51.41 | 137527 | 159392 14 | 35:25.18 | 4:55.70 | 159393 | 181587 15 | 40:21.13 | 1:06.05 | 181588 | 186542 16 | 41:27.18 | 5:32.64 | 186543 | 211506 17 | 47:00.07 | 2:44.33 | 211507 | 223839 18 | 49:44.40 | 0:20.39 | 223840 | 225378

Track 1

Filename C:\Users\chris\Desktop\Rips\01 - Freddy's Coming for You.wav

Pre-gap length 0:00:02.00

Peak level 97.7 % Track quality 100.0 % Test CRC 657C198E Copy CRC 657C198E Track not present in AccurateRip database Copy OK

Track 2

Filename C:\Users\chris\Desktop\Rips\02 - Main Title.wav

Peak level 97.7 % Track quality 100.0 % Test CRC EF450D10 Copy CRC EF450D10 Track not present in AccurateRip database Copy OK

Track 3

Filename C:\Users\chris\Desktop\Rips\03 - Missing Pictures.wav

Peak level 81.7 % Track quality 100.0 % Test CRC E61C276E Copy CRC E61C276E Track not present in AccurateRip database Copy OK

Track 4

Filename C:\Users\chris\Desktop\Rips\04 - Rufus.wav

Peak level 97.7 % Track quality 100.0 % Test CRC 51C0B81B Copy CRC 51C0B81B Track not present in AccurateRip database Copy OK

Track 5

Filename C:\Users\chris\Desktop\Rips\05 - Quiet Drive.wav

Peak level 97.7 % Track quality 100.0 % Test CRC C68D40EE Copy CRC C68D40EE Track not present in AccurateRip database Copy OK

Track 6

Filename C:\Users\chris\Desktop\Rips\06 - Jesse and Kris.wav

Peak level 97.7 % Track quality 100.0 % Test CRC 006E3A35 Copy CRC 006E3A35 Track not present in AccurateRip database Copy OK

Track 7

Filename C:\Users\chris\Desktop\Rips\07 - Jesse and the Police.wav

Peak level 97.7 % Track quality 100.0 % Test CRC B2ACB8C8 Copy CRC B2ACB8C8 Track not present in AccurateRip database Copy OK

Track 8

Filename C:\Users\chris\Desktop\Rips\08 - You Smell Different.wav

Peak level 97.7 % Track quality 100.0 % Test CRC E4B4723C Copy CRC E4B4723C Track not present in AccurateRip database Copy OK

Track 9

Filename C:\Users\chris\Desktop\Rips\09 - A Man Named Fred Krueger.wav

Peak level 97.7 % Track quality 100.0 % Test CRC 90AA4294 Copy CRC 90AA4294 Track not present in AccurateRip database Copy OK

Track 10

Filename C:\Users\chris\Desktop\Rips\10 - Research.wav

Peak level 97.7 % Track quality 100.0 % Test CRC 68ED8E1F Copy CRC 68ED8E1F Track not present in AccurateRip database Copy OK

Track 11

Filename C:\Users\chris\Desktop\Rips\11 - It's Hot In Here.wav

Peak level 97.7 % Track quality 100.0 % Test CRC A32CB10C Copy CRC A32CB10C Track not present in AccurateRip database Copy OK

Track 12

Filename C:\Users\chris\Desktop\Rips\12 - The School.wav

Peak level 60.9 % Track quality 100.0 % Test CRC B6DF0704 Copy CRC B6DF0704 Track not present in AccurateRip database Copy OK

Track 13

Filename C:\Users\chris\Desktop\Rips\13 - Where the Monster Lives.wav

Peak level 97.7 % Track quality 99.9 % Test CRC 26C3ED28 Copy CRC 26C3ED28 Track not present in AccurateRip database Copy OK

Track 14

Filename C:\Users\chris\Desktop\Rips\14 - Wake Me Up.wav

Peak level 97.7 % Track quality 100.0 % Test CRC 0C75762C Copy CRC 0C75762C Track not present in AccurateRip database Copy OK

Track 15

Filename C:\Users\chris\Desktop\Rips\15 - Boo.wav

Peak level 97.7 % Track quality 99.8 % Test CRC B7D202AA Copy CRC B7D202AA Track not present in AccurateRip database Copy OK

Track 16

Filename C:\Users\chris\Desktop\Rips\16 - Like It Used to Be.wav

Peak level 97.7 % Track quality 100.0 % Test CRC 0264F44E Copy CRC 0264F44E Track not present in AccurateRip database Copy OK

Track 17

Filename C:\Users\chris\Desktop\Rips\17 - One More Nap.wav

Peak level 97.7 % Track quality 100.0 % Test CRC 36AE42B0 Copy CRC 36AE42B0 Track not present in AccurateRip database Copy OK

Track 18

Filename C:\Users\chris\Desktop\Rips\18 - Jump Rope.wav

Peak level 29.0 % Track quality 100.0 % Test CRC 14080240 Copy CRC 14080240 Track not present in AccurateRip database Copy OK

None of the tracks are present in the AccurateRip database

No errors occurred

End of status report
 
REM GENRE SoundtrackREM DATE 2010REM DISCID FB0BBD12REM COMMENT "ExactAudioCopy v0.99pb5"PERFORMER "Steve Jablonsky"TITLE "A Nightmare On Elm Street"FILE "01 - Freddy's Coming for You.wav" WAVE TRACK 01 AUDIO TITLE "Freddy's Coming for You" PERFORMER "Steve Jablonsky" FLAGS DCP INDEX 01 00:00:00FILE "02 - Main Title.wav" WAVE TRACK 02 AUDIO TITLE "Main Title" PERFORMER "Steve Jablonsky" FLAGS DCP INDEX 01 00:00:00FILE "03 - Missing Pictures.wav" WAVE TRACK 03 AUDIO TITLE "Missing Pictures" PERFORMER "Steve Jablonsky" FLAGS DCP INDEX 01 00:00:00FILE "04 - Rufus.wav" WAVE TRACK 04 AUDIO TITLE "Rufus" PERFORMER "Steve Jablonsky" FLAGS DCP INDEX 01 00:00:00FILE "05 - Quiet Drive.wav" WAVE TRACK 05 AUDIO TITLE "Quiet Drive" PERFORMER "Steve Jablonsky" FLAGS DCP INDEX 01 00:00:00FILE "06 - Jesse and Kris.wav" WAVE TRACK 06 AUDIO TITLE "Jesse and Kris" PERFORMER "Steve Jablonsky" FLAGS DCP INDEX 01 00:00:00FILE "07 - Jesse and the Police.wav" WAVE TRACK 07 AUDIO TITLE "Jesse and the Police" PERFORMER "Steve Jablonsky" FLAGS DCP INDEX 01 00:00:00FILE "08 - You Smell Different.wav" WAVE TRACK 08 AUDIO TITLE "You Smell Different" PERFORMER "Steve Jablonsky" FLAGS DCP INDEX 01 00:00:00FILE "09 - A Man Named Fred Krueger.wav" WAVE TRACK 09 AUDIO TITLE "A Man Named Fred Krueger" PERFORMER "Steve Jablonsky" FLAGS DCP INDEX 01 00:00:00FILE "10 - Research.wav" WAVE TRACK 10 AUDIO TITLE "Research" PERFORMER "Steve Jablonsky" FLAGS DCP INDEX 01 00:00:00FILE "11 - It's Hot In Here.wav" WAVE TRACK 11 AUDIO TITLE "It's Hot In Here" PERFORMER "Steve Jablonsky" FLAGS DCP INDEX 01 00:00:00FILE "12 - The School.wav" WAVE TRACK 12 AUDIO TITLE "The School" PERFORMER "Steve Jablonsky" FLAGS DCP INDEX 01 00:00:00FILE "13 - Where the Monster Lives.wav" WAVE TRACK 13 AUDIO TITLE "Where the Monster Lives" PERFORMER "Steve Jablonsky" FLAGS DCP INDEX 01 00:00:00FILE "14 - Wake Me Up.wav" WAVE TRACK 14 AUDIO TITLE "Wake Me Up" PERFORMER "Steve Jablonsky" FLAGS DCP INDEX 01 00:00:00FILE "15 - Boo.wav" WAVE TRACK 15 AUDIO TITLE "Boo" PERFORMER "Steve Jablonsky" FLAGS DCP INDEX 01 00:00:00FILE "16 - Like It Used to Be.wav" WAVE TRACK 16 AUDIO TITLE "Like It Used to Be" PERFORMER "Steve Jablonsky" FLAGS DCP INDEX 01 00:00:00FILE "17 - One More Nap.wav" WAVE TRACK 17 AUDIO TITLE "One More Nap" PERFORMER "Steve Jablonsky" FLAGS DCP INDEX 01 00:00:00FILE "18 - Jump Rope.wav" WAVE TRACK 18 AUDIO TITLE "Jump Rope" PERFORMER "Steve Jablonsky" FLAGS DCP INDEX 01 00:00:00
Доп. информация: Внутри имеются сканы - 13 Мб

Трекер:  [ 29-Дек-2010 21:44 ]

  

Скачать .torrent

Размер .torrent файла 11 KB


Размер: 230 MB
Хэш (hash) релиза: e9f943ce6dcf3c0e47e19e4d89458c21c508a38e

Торренты, похожие на Кошмар на улице Вязов A Nightmare On Elm Street скачать торрент

Форум Название Автор Размер S L Добавлен
Саундтреки к фильмам и мультфильмам (mp3) ·· [Soundtrack / Unofficial] Кошмар на улице Вязов 1,2,3,4,5,6,8 / A Nightmare on Elm Street 1, 2, 3, 4, 5, Freddy's Dead The Final Nightmare, Freddy vs. Jason, A Nightmare on Elm Street (2010) - (1984-2010), MP3, 320 kbps Galfimbul 962592823918 MB 0 0 1389360821

16:33

10-Янв-14

Саундтреки к фильмам и мультфильмам (lossless) ·· (Score) Charles Bernstein, Christopher Young - A Nightmare on Elm Street Parts I & II / Кошмар на улице вязов 1 & 2 - 1995, FLAC (tracks+.cue), lossless Galfimbul 336392542321 MB 0 0 1495449292

13:34

22-Май-17

Саундтреки к фильмам и мультфильмам (mp3) ·· [Soundtrack / Unofficial] Кошмар на улице Вязов (1-8) / A Nightmare on Elm Street - Unofficial Soundtracks (VA) - (1984-2010), MP3, 320 kbps Galfimbul 430143688410 MB 0 0 1461564137

09:02

25-Апр-16

Саундтреки к фильмам и мультфильмам (mp3) ·· (Score) Кошмар на улице Вязов | Фредди против Джейсона | A Nightmare On Elm Street | Freddy vs. Jason (Charles Bernstein, Angelo Badalamenti, Craig Safan, Jay Ferguson, Brian May, Graeme Revell, Steve Jablonsky) (20CD) [1984-2010, MP3, 320 kbps] Galfimbul 25768819992.4 GB 0 0 1448563106

21:38

26-Ноя-15

Саундтреки к фильмам и мультфильмам (mp3) ·· (Soundtrack) Кошмар на улице Вязов | Фредди против Джейсона | Я — Нэнси | A Nightmare On Elm Street | Freddy vs. Jason | I Am Nancy (14CD) [1987-2015, MP3, 128-320 kbps] Galfimbul 1032510516985 MB 0 0 1448346905

09:35

24-Ноя-15

Саундтреки к фильмам и мультфильмам (lossless) ·· (Score) Charles Bernstein, Christopher Young - A Nightmare on Elm Street Parts I & II / Кошмар на улице вязов 1 & 2 - 1995, FLAC (tracks+.cue), lossless Galfimbul 336392542321 MB 0 0 1292268783

22:33

13-Дек-10

Саундтреки к фильмам и мультфильмам (mp3) ·· (Score) A Nightmare On Elm Street 2 (Complete) | Кошмар на Улице Вязов 2 (Christopher Young) - 1985, MP3, 320 kbps Mos 10047696096 MB 0 0 1291091732

07:35

30-Ноя-10

bot

Топик был перенесен в форум Саундтреки к фильмам и мультфильмам (lossless)

Перенес FRANKS

Хотите добавить комментарий к записи скачать торрент Кошмар на улице Вязов A Nightmare On Elm Street

!Обратная связь