Скачать через торрент музыку Bad Boys Original Score бесплатно без регистрации torrent

Если у вас наблюдаются проблемы со скриншотами, переходом по ссылками, скачиванием торрентов - проблемы в блокировщике рекламы AdBlock. #хорошегоДня!


Статистика раздачи
Размер:  402 MB   |    Зарегистрирован:  6 лет 7 месяцев   |    .torrent скачан:  60 раз   |   
Раздают:  1  
   
Загрузка...
 
Автор Сообщение

AqvaGen


Bad Boys Original Score (Limited Edition)

Страна: США
Жанр: Soundtrack
Год выпуска: 2007
Формат: APE (image + .cue)
Битрейт аудио: lossless
Продолжительность: 70:32
Трэклист:
1. Prologue - The Car Jacking 4:31
2. Bad Boys - Main Title / Heist 6:07
3. Funky Brothers to PD 0:34
4. Air Conditioning Inspection 1:07
5. JoJo, What you Know? 0:39
6. Dead Guy 4:55
7. He's the Person I'd Call 0:52
8. Killing Max 4:15
9. The Boys Find Max 2:29
10. Into Lois' Apartment 0:49
11. Escape from Julie's 2:46
12. You're going to leave me alone? 0:50
13. Don't Honey Me Baby! 1:01
14. My Bologna Has a First Name? 4:02
15. Julie's Got A Gun 0:53
16. Escape from Club Hell / Ether Chase 4:33
17. We Don't Want to Lose You 0:38
18. I mean Like Funny 2:00
19. Interrogation 0:40
20. Stake Out 0:53
21. Tailing Lab Tech / Blown Cover 1:35
22. Busted 0:51
23. Footchase 4:23
24. Pouchet Calling 0:32
25. Hanger Shootout 9:14
26. Cobra Chase / Pouchet's Death 4:40

Bonus Track
27. Bad Boys: Main Title (Edited Film Version) 3:36
Exact Audio Copy V0.99 prebeta 3 from 28. July 2007

EAC extraction logfile from 12. October 2007, 10:59

Mark Mancina / Bad Boys

Used drive : LITE-ON CD-RW SOHR-5238S Adapter: 0 ID: 3

Read mode : Secure
Utilize accurate stream : Yes
Defeat audio cache : Yes
Make use of C2 pointers : No

Read offset correction : 6
Overread into Lead-In and Lead-Out : No
Fill up missing offset samples with silence : Yes
Delete leading and trailing silent blocks : No
Null samples used in CRC calculations : Yes
Used interface : Installed external ASPI interface

Used output format : Monkey's Audio Lossless Encoder
Selected bitrate : High Lossless Compression
Quality : High
Add ID3 tag : Yes
Command line compressor : C:\Program Files\Exact Audio Copy\MAC.exe

TOC of the extracted CD

Track | Start | Length | Start sector | End sector
---------------------------------------------------------
1 | 0:00.00 | 4:33.52 | 0 | 20526
2 | 4:33.52 | 6:09.05 | 20527 | 48206
3 | 10:42.57 | 0:36.02 | 48207 | 50908
4 | 11:18.59 | 1:09.48 | 50909 | 56131
5 | 12:28.32 | 0:41.21 | 56132 | 59227
6 | 13:09.53 | 4:57.05 | 59228 | 81507
7 | 18:06.58 | 0:54.11 | 81508 | 85568
8 | 19:00.69 | 4:17.63 | 85569 | 104906
9 | 23:18.57 | 2:31.14 | 104907 | 116245
10 | 25:49.71 | 0:51.54 | 116246 | 120124
11 | 26:41.50 | 2:48.40 | 120125 | 132764
12 | 29:30.15 | 0:52.31 | 132765 | 136695
13 | 30:22.46 | 1:03.55 | 136696 | 141475
14 | 31:26.26 | 4:04.00 | 141476 | 159775
15 | 35:30.26 | 0:55.09 | 159776 | 163909
16 | 36:25.35 | 4:35.09 | 163910 | 184543
17 | 41:00.44 | 0:40.53 | 184544 | 187596
18 | 41:41.22 | 2:02.03 | 187597 | 196749
19 | 43:43.25 | 0:42.27 | 196750 | 199926
20 | 44:25.52 | 0:55.42 | 199927 | 204093
21 | 45:21.19 | 1:37.69 | 204094 | 211437
22 | 46:59.13 | 0:53.55 | 211438 | 215467
23 | 47:52.68 | 4:25.32 | 215468 | 235374
24 | 52:18.25 | 0:34.07 | 235375 | 237931
25 | 52:52.32 | 9:16.09 | 237932 | 279640
26 | 62:08.41 | 4:43.72 | 279641 | 300937
27 | 66:52.38 | 3:36.57 | 300938 | 317194

Range status and errors

Selected range

Filename C:\Documents and Settings\HansK\Desktop\Mark Mancina - Bad Boys.wav

Peak level 99.9 %
Range quality 100.0 %
Copy CRC DEFAC8F6
Copy OK

No errors occurred

AccurateRip summary

Track 1 not present in database
Track 2 not present in database
Track 3 not present in database
Track 4 not present in database
Track 5 not present in database
Track 6 not present in database
Track 7 not present in database
Track 8 not present in database
Track 9 not present in database
Track 10 not present in database
Track 11 not present in database
Track 12 not present in database
Track 13 not present in database
Track 14 not present in database
Track 15 not present in database
Track 16 not present in database
Track 17 not present in database
Track 18 not present in database
Track 19 not present in database
Track 20 not present in database
Track 21 not present in database
Track 22 not present in database
Track 23 not present in database
Track 24 not present in database
Track 25 not present in database
Track 26 not present in database
Track 27 not present in database

None of the tracks are present in the AccurateRip database

End of status report


Трекер:  [ 13-Фев-2011 16:42 ]

  

Скачать .torrent

Размер .torrent файла 17 KB


Размер: 402 MB
Хэш (hash) релиза: da803b11acf0ba2cb7086b7134d380398477c341

bot

Топик был перенесен в форум Саундтреки к фильмам и мультфильмам (lossless)

Перенес AqvaGen

Хотите добавить комментарий к записи скачать торрент Bad Boys Original Score

!Обратная связь